.
Авторизация | Регистрация
Хочешь лучшие торренты? Добавь свой email!
Добавить
» » Голодные игры: И вспыхнет пламя / The Hunger Games: Catching Fire (2013) BDRemux 1080p | D | IMAX | Лицензия скачать торрент бесплатно




    Голодные игры: И вспыхнет пламя / The Hunger Games: Catching Fire (2013) BDRemux 1080p | D | IMAX | Лицензия скачать торрент бесплатно

    Опубликовал: Админ | Дата: 27-02-2015, 11:10 | Просмотров: 232



    Детально о кино
    Русское название: Голодные игры: И вспыхнет пламя
    Русское название в мировом прокате: The Hunger Games: Catching Fire
    Создали в: 2013
    Категория жанра: Фантастика, боевик, триллер, приключения, экранизация, антиутопия
    Снималось в: США, Color Force
    Главный режиссер: Френсис Лоуренс
    Актеры: Дженнифер Лоуренс, Джош Хатчерсон, Сэм Клафлин, Джена Мэлоун, Вуди Харрельсон, Элизабет Бэнкс, Лиам Хемсворт, Дональд Сазерленд, Филип Сеймур Хоффман, Стэнли Туччи

    Сюжет фильма: Сумев выжить на безжалостных Голодных играх, Китнисс Эвердин и Пит Мелларк тщетно пытаются забыть о том, что произошло с ними в Капитолии. Но президент Сноу, диктатор государства Панем, и его клика не готовы оставить девушку и парня в покое, считая их опасными. Власти решают устроить показательные Игры, в которых примут участие победители прошлых лет от каждого дистрикта. Жребий брошен: Китнисс и Пит вынуждены вернуться на Арену. Вновь они лицом к лицу со смертью — ради своих близких, ради своего будущего, ради своей любви! Экранизация второго романа в одноимённой трилогии американской писательницы Сьюзен Коллинз.



    Файл
    Качество фильма: Blu-Ray Remux (1080p)
    Информация о видео: MPEG-4 AVC, 20504 Kбит/с, 1920x1080, 23.976 кадр/с
    Информация о звуке: Русский (АС3, 6 ch, 640 Кбит/с), (DTS-HD MA, 6 ch, 2029 Кбит/с), английский (DTS-HD MA, 8 ch, 5019 Кбит/с), (АС3, 2 ch, 224 Кбит/с)
    Размер скачиваемого торрента: 29.19 ГБ
    Время просмотра: 02:26:14
    Перевод текста: Дублированный лицензия
    Субтитры: Русские, английские
    Разница
    Вот к примеру на этом русском обрубке http://rutor.org/torrent/341354 обрезан кадр в почти половине фильма где сцены IMAX - http://check2pic.ru/compare/36107/

    MI
    Общее
    Уникальный идентификатор : 244888240496130643239974472843721715556 (0xB83BC271364E80DBAF4307D421882F64)
    Полное имя : K:The.Hunger.Games.Catching.Fire.2013.MPEG-4.BD-Remux.(1080p).mkv
    Формат : Matroska
    Версия формата : Version 4 / Version 2
    Размер файла : 29,2 Гбайт
    Продолжительность : 2 ч. 26 м.
    Режим общего битрейта : Переменный
    Общий поток : 28,6 Мбит/сек
    Название фильма : The Hunger Games Catching Fire 2013 IMAX Edition BDRip 720p GORESEWAGE
    Дата кодирования : UTC 2014-03-08 17:45:23
    Программа кодирования : mkvmerge v6.8.0 (;Theme for Great Cities;) 32bit built on Mar 2 2014 21:27:07
    Библиотека кодирования : libebml v1.3.0 libmatroska v1.4.1
    Attachment : Yes

    Видео
    Идентификатор : 1
    Формат : AVC
    Формат/Информация : Advanced Video Codec
    Профиль формата : High@L4.1
    Параметр CABAC формата : Да
    Параметр ReFrames формата : 4 кадра
    Идентификатор кодека : V_MPEG4/ISO/AVC
    Продолжительность : 2 ч. 26 м.
    Вид битрейта : Переменный
    Максимальный битрейт : 37,0 Мбит/сек
    Ширина : 1920 пикселей
    Высота : 1080 пикселей
    Соотношение сторон : 16:9
    Режим частоты кадров : Постоянный
    Частота кадров : 23,976 кадра/сек
    Цветовое пространство : YUV
    Субдискретизация насыщенности : 4:2:0
    Битовая глубина : 8 бит
    Тип развёртки : Прогрессивная
    Язык : English
    Default : Да
    Forced : Нет

    Аудио #1
    Идентификатор : 2
    Формат : AC-3
    Формат/Информация : Audio Coding 3
    Расширение режима : CM (complete main)
    Параметр Endianness формата : Big
    Идентификатор кодека : A_AC3
    Продолжительность : 2 ч. 26 м.
    Вид битрейта : Постоянный
    Битрейт : 640 Кбит/сек
    Каналы : 6 каналов
    Расположение каналов : Front: L C R, Side: L R, LFE
    Частота : 48,0 КГц
    Битовая глубина : 16 бит
    Метод сжатия : С потерями
    Размер потока : 669 Мбайт (2%)
    Заголовок : Дубляж (Blu-Ray - RUS)
    Язык : Russian
    Default : Да
    Forced : Нет

    Аудио #2
    Идентификатор : 3
    Формат : DTS
    Формат/Информация : Digital Theater Systems
    Профиль формата : MA / Core
    Режим : 16
    Параметр Endianness формата : Big
    Идентификатор кодека : A_DTS
    Продолжительность : 2 ч. 26 м.
    Вид битрейта : Переменный
    Битрейт : Неизвестно / 1509 Кбит/сек
    Каналы : 6 каналов
    Расположение каналов : Front: L C R, Side: L R, LFE
    Частота : 48,0 КГц
    Битовая глубина : 16 бит
    Метод сжатия : Без потерь / Lossy
    Заголовок : Дубляж (Blu-Ray - RUS)
    Язык : Russian
    Default : Нет
    Forced : Нет

    Аудио #3
    Идентификатор : 4
    Формат : DTS
    Формат/Информация : Digital Theater Systems
    Профиль формата : MA / Core
    Режим : 16
    Параметр Endianness формата : Big
    Идентификатор кодека : A_DTS
    Продолжительность : 2 ч. 26 м.
    Вид битрейта : Переменный
    Битрейт : Неизвестно / 1509 Кбит/сек
    Каналы : 8 каналов / 6 каналов
    Расположение каналов : Front: L C R, Side: L R, Back: L R, LFE / Front: L C R, Side: L R, LFE
    Частота : 48,0 КГц
    Битовая глубина : 24 бит
    Метод сжатия : Без потерь / Lossy
    Заголовок : Original (Blu-Ray - USA)
    Язык : English
    Default : Нет
    Forced : Нет

    Аудио #4
    Идентификатор : 5
    Формат : AC-3
    Формат/Информация : Audio Coding 3
    Профиль формата : Dolby Digital
    Расширение режима : CM (complete main)
    Параметр Endianness формата : Big
    Идентификатор кодека : A_AC3
    Продолжительность : 2 ч. 26 м.
    Вид битрейта : Постоянный
    Битрейт : 224 Кбит/сек
    Каналы : 2 канала
    Расположение каналов : Front: L R
    Частота : 48,0 КГц
    Битовая глубина : 16 бит
    Метод сжатия : С потерями
    Размер потока : 234 Мбайт (1%)
    Заголовок : Commentary with Director Francis Lawrence and Producer Nina Jacobson
    Язык : English
    Default : Нет
    Forced : Нет

    Аудио #5
    Идентификатор : 6
    Формат : AC-3
    Формат/Информация : Audio Coding 3
    Профиль формата : Dolby Digital
    Расширение режима : CM (complete main)
    Параметр Endianness формата : Big
    Идентификатор кодека : A_AC3
    Продолжительность : 2 ч. 26 м.
    Вид битрейта : Постоянный
    Битрейт : 224 Кбит/сек
    Каналы : 2 канала
    Расположение каналов : Front: L R
    Частота : 48,0 КГц
    Битовая глубина : 16 бит
    Метод сжатия : С потерями
    Размер потока : 234 Мбайт (1%)
    Заголовок : Deion
    Язык : English
    Default : Нет
    Forced : Нет

    Текст #1
    Идентификатор : 7
    Формат : UTF-8
    Идентификатор кодека : S_TEXT/UTF8
    Идентификатор кодека/Информация : UTF-8 Plain Text
    Заголовок : Full #1
    Язык : Russian
    Default : Нет
    Forced : Нет

    Текст #2
    Идентификатор : 8
    Формат : UTF-8
    Идентификатор кодека : S_TEXT/UTF8
    Идентификатор кодека/Информация : UTF-8 Plain Text
    Заголовок : Full #2
    Язык : Russian
    Default : Нет
    Forced : Нет

    Текст #3
    Идентификатор : 9
    Формат : UTF-8
    Идентификатор кодека : S_TEXT/UTF8
    Идентификатор кодека/Информация : UTF-8 Plain Text
    Заголовок : Full
    Язык : English
    Default : Нет
    Forced : Нет

    Текст #4
    Идентификатор : 10
    Формат : UTF-8
    Идентификатор кодека : S_TEXT/UTF8
    Идентификатор кодека/Информация : UTF-8 Plain Text
    Заголовок : SDH
    Язык : English
    Default : Нет
    Forced : Нет

    Меню
    00:00:00.000 : en:00:00:00.000
    00:11:24.684 : en:00:11:24.684
    00:16:48.049 : en:00:16:48.049
    00:25:38.078 : en:00:25:38.078
    00:35:51.649 : en:00:35:51.649
    00:44:22.576 : en:00:44:22.576
    00:52:12.921 : en:00:52:12.921
    01:01:11.376 : en:01:01:11.376
    01:08:12.213 : en:01:08:12.213
    01:16:48.938 : en:01:16:48.938
    01:22:39.663 : en:01:22:39.663
    01:29:21.731 : en:01:29:21.731
    01:40:43.913 : en:01:40:43.913
    01:50:47.766 : en:01:50:47.766
    02:02:46.984 : en:02:02:46.984
    02:09:58.958 : en:02:09:58.958


    Скриншоты для ознакомления



    Размер скачиваемого торрента: 29.19 GB (31339125006 Bytes)

    Голодные игры: И вспыхнет пламя / The Hunger Games: Catching Fire (2013) BDRemux 1080p | D | IMAX | Лицензия торрент скачать бесплатно
    загрузка...
    Рейтинг →
     (голосов: 1, оценка 5/5, голосовать можно 1 раз )

    Другие торренты по теме:

  • Голодные игры: Сойка-пересмешница. Часть I / The Hunger Games: Mockingjay - Part 1 (2014) UHD BDRemux 2160p | 4K | HDR | D, A | Лицензия
  • Голодные игры / The Hunger Games (2012) HDRip
  • Сьюзен Коллинз / Suzanne Collins - Голодные игры (2010-2011) fb2
  • Голодные игры: И вспыхнет пламя / The Hunger Games: Catching Fire (2013) HD 1080p | Трейлер-тизер
  • Голодные игры (2013) SATRip
  • OST - Голодные игры / The Hunger Games (2012) MP3 скачать через торрент бесплатно
  • Пусть говорят - Голодные игры (2013) HDTVRip от MediaClub скачать через торрент бесплатно
  • OST - Голодные игры: И вспыхнет пламя / Hunger Games: Catching Fire (2013) MP3


    • Комментарии (0):

      Информация

      Информация

        Посетители, находящиеся в группе Гости, не могут оставлять комментарии в данной новости.

        ↓ Меню



        ↓ Опрос

        А Вы добавили сайт в закладки?
        Да
        Не


        Top 10 за месяц (Фильмы)