.
Авторизация | Регистрация
Хочешь лучшие торренты? Добавь свой email!
Добавить
» » Похмельные игры / The Hungover Games (2014) WEB-DLRip от Deadmauvlad | iTunes скачать торрент бесплатно




    Похмельные игры / The Hungover Games (2014) WEB-DLRip от Deadmauvlad | iTunes скачать торрент бесплатно

    Опубликовал: Админ | Дата: 27-02-2015, 11:10 | Просмотров: 249


    Детально о кино
    Название: Похмельные игры
    Русское название в мировом прокате: The Hungover Games
    Создали в: 2014
    Категория жанра: комедия
    Главный режиссер: Джош Столберг
    Актеры: Росс Нэйтан, Сэм Пэнкейк, Бен Бегли, Рассел Харпер, Джон Ливингстон, Дэмиен Брэй, Тара Рид, Джейми Кеннеди, Шанель Гейнс

    Сюжет фильма: После празднования предстоящей свадьбы Доуга в отеле в Лафлине, штат Невада, Брэдли, Эд и Зак приходят в себя в футуристической антиутопии, потеряв своего друга — Доуга.



    Снималось в: США, Sense and Sensibility Ventures, Silver Nitrate
    Время просмотра: 01:25:01
    Озвучивание: Профессиональное (многоголосное) iTunes
    Файл
    Тип видео: AVI (XviD)
    Качество: WEB-DLRip Рип с WEB-DL 720p
    Информация о видео: 720x400 (1.80:1), 23.976 fps, XviD build 73 ~1090 kbps avg, 0.16 bit/pixel
    Информация о звуке: 48 kHz, MPEG Layer 3, 2 ch, ~128.00 kbps avg
    MI
    codeОбщее
    Полное имя : D:Рипы выкладка DeadmauvladРипы готовыеThe_Hungover_Game.P.WEB-DLRip.Deadmauvlad.avi
    Формат : AVI
    Формат/Информация : Audio Video Interleave
    Размер файла : 751 Мбайт
    Продолжительность : 1 ч. 25 м.
    Общий поток : 1228 Кбит/сек
    Название фильма : Похмельные.Игры.WEB-DLRip.Deadmauvlad
    Режиссёр : Deadmauvlad
    Жанр : Genre_18
    Программа кодирования : VirtualDubMod 1.5.10.3 | www.virtualdub-fr.org || (build 2550/release)
    Формат оригинала/Имя : Фильм
    Правообладатель : Goldenshara

    Видео
    Идентификатор : 0
    Формат : MPEG-4 Visual
    Профиль формата : Advanced Simple@L5
    Параметр BVOP формата : 1
    Параметр QPel формата : Нет
    Параметр GMC формата : Без точки перехода
    Параметр матрицы формата : Выборочная
    Идентификатор кодека : XVID
    Идентификатор кодека/Подсказка : XviD
    Продолжительность : 1 ч. 25 м.
    Битрейт : 1091 Кбит/сек
    Ширина : 720 пикселей
    Высота : 400 пикселей
    Соотношение сторон : 16:9
    Частота кадров : 23,976 кадра/сек
    Цветовое пространство : YUV
    Субдискретизация насыщенности : 4:2:0
    Битовая глубина : 8 бит
    Тип развёртки : Прогрессивная
    Метод сжатия : С потерями
    Бит/(Пиксели*Кадры) : 0.158
    Размер потока : 668 Мбайт (89%)
    Библиотека кодирования : XviD 73

    Аудио
    Идентификатор : 1
    Формат : MPEG Audio
    Версия формата : Version 1
    Профиль формата : Layer 3
    Режим : Joint stereo
    Расширение режима : MS Stereo
    Идентификатор кодека : 55
    Идентификатор кодека/Подсказка : MP3
    Продолжительность : 1 ч. 25 м.
    Вид битрейта : Постоянный
    Битрейт : 128 Кбит/сек
    Каналы : 2 канала
    Частота : 48,0 КГц
    Метод сжатия : С потерями
    Размер потока : 78,0 Мбайт (10%)
    Выравнивание : Соединение по промежуткам
    Продолжительность промежутка : 42 мс. (1,00 видеокадр)
    Время предзагрузки промежутка : 504 мс.
    Библиотека кодирования : LAME3.99r
    Залил: DJ_V.K_TV
    Размер скачиваемого торрента: 751.43 MB (787929088 Bytes)


    Похмельные игры / The Hungover Games (2014) WEB-DLRip от Deadmauvlad | iTunes торрент скачать бесплатно
    загрузка...
    Рейтинг →
     (голосов: 1, оценка 5/5, голосовать можно 1 раз )

    Другие торренты по теме:

  • Похмельные игры / The Hungover Games (2014) WEB-DL 720p | iTunes скачать через торрент бесплатно
  • Похмельные игры / The Hungover Games (2014) WB-DLRip | iTunes скачать через торрент бесплатно
  • Похмельные игры / The Hungover Games (2014) WEB-DLRip-AVC | iTunes
  • Похмельные игры / The Hungover Games (2014) WEB-DLRip от Smart-Tracker | КПК скачать через торрент бесплатно
  • Похмельные игры / The Hungover Games (2014) BDRip 720p | iTunes скачать через торрент бесплатно
  • Похмельные игры / The Hungover Games (2014) HDRip | iTunes скачать через торрент бесплатно
  • Похмельные игры / The Hungover Games (2014) BDRip 720p от Leonardo and Scarabey | iTunes скачать через торрент бесплатно
  • Похмельные игры / The Hungover Games (2014) BDRip-AVC от ExKinoRay | iTunes скачать через торрент бесплатно


    • Комментарии (0):

      Информация

      Информация

        Посетители, находящиеся в группе Гости, не могут оставлять комментарии в данной новости.

        ↓ Меню



        ↓ Опрос

        А Вы добавили сайт в закладки?
        Да
        Не


        Top 10 за месяц (Фильмы)