.
Авторизация | Регистрация
Хочешь лучшие торренты? Добавь свой email!
Добавить
» » Собственность / Possessions (2011) DVB от MediaClub | P2 скачать через торрент бесплатно




    Собственность / Possessions (2011) DVB от MediaClub | P2 скачать через торрент бесплатно

    Опубликовал: Админ | Дата: 27-02-2015, 11:10 | Просмотров: 215



    Детально о кино
    Русское название: Собственность
    Русское название в мировом прокате: Possessions
    Создали в: 2011
    Категория жанра: Триллер, драма
    Главный режиссер: Эрик Гирадо
    Актеры: Жереми Ренье, Жюли Депардье, Люсьен Жан-Батист, Александра Лами, Бенуа Жирос, Людмила Руозо, Керен Марсиано, Людовик Бертийо, Брайс Форнье, Бертран Герри, Ален Блазкез

    Сюжет фильма:
    Муж и жена Мэрилин и Бруно Карон переезжают с севера Франции с тем, чтобы поселиться в горах. Они снимают коттедж семьи Кастанг, с которой постепенно заводят знакомство. В результате цепочки событий у четы Карон нарастают зависть и злоба по отношению к более обеспеченной семье, что вскоре приводит к трагической развязке.



    Снималось в: Франция
    Киностудия: Canal fr, Cin? Cin?mas, Cin?, D?velopimage 2, Incognita Films
    Время просмотра: 01:33:45
    Перевод текста: Профессиональный двухголосый (НТВ )

    Файл
    Качество фильма: DVB
    Информация о видео: MPEG-2, 1721 Кбит/с, 720x576@1024x576
    Информация о звуке: Русский (АС3, 6 ch, 384 Кбит/с) / (MP2, 2 ch, 192 Кбит/с)

    Семпл

    Скриншоты для ознакомления

    MI
    Общее
    Полное имя : Sobstvennost.2011.DVB.MediaClub.ts
    Формат : MPEG-TS
    Профиль формата : No PAT/PMT
    Размер файла : 1,59 Гбайт
    Продолжительность : 1 ч. 33 м.
    Режим общего битрейта : Переменный
    Общий поток : 2422 Кбит/сек

    Видео
    Идентификатор : 322 (0x142)
    Формат : MPEG Video
    Версия формата : Version 2
    Профиль формата : Main@Main
    Параметр BVOP формата : Да
    Параметр матрицы формата : Выборочная
    Параметр GOP формата : Variable
    Продолжительность : 1 ч. 33 м.
    Вид битрейта : Переменный
    Битрейт : 1721 Кбит/сек
    Максимальный битрейт : 15,0 Мбит/сек
    Ширина : 720 пикселей
    Высота : 576 пикселей
    Соотношение сторон : 16:9
    Частота кадров : 25,000 кадров/сек
    Стандарт вещания : PAL
    Цветовое пространство : YUV
    Субдискретизация насыщенности : 4:2:0
    Битовая глубина : 8 бит
    Тип развёртки : Чересстрочная
    Порядок развёртки : Верхнее поле первое
    Метод сжатия : С потерями
    Бит/(Пиксели*Кадры) : 0.166
    Размер потока : 1,13 Гбайт (71%)

    Аудио #1
    Идентификатор : 405 (0x195)
    Формат : MPEG Audio
    Версия формата : Version 1
    Профиль формата : Layer 2
    Продолжительность : 1 ч. 33 м.
    Вид битрейта : Постоянный
    Битрейт : 192 Кбит/сек
    Каналы : 2 канала
    Частота : 48,0 КГц
    Метод сжатия : С потерями
    Задержка видео : -827 мс.
    Размер потока : 129 Мбайт (8%)

    Аудио #2
    Идентификатор : 435 (0x1B3)
    Формат : AC-3
    Формат/Информация : Audio Coding 3
    Расширение режима : CM (complete main)
    Параметр Endianness формата : Big
    Продолжительность : 1 ч. 33 м.
    Вид битрейта : Постоянный
    Битрейт : 384 Кбит/сек
    Каналы : 6 каналов
    Расположение каналов : Front: L C R, Side: L R, LFE
    Частота : 48,0 КГц
    Битовая глубина : 16 бит
    Метод сжатия : С потерями
    Задержка видео : -835 мс.
    Размер потока : 258 Мбайт (16%)


    Релиз подготовил:
    Залил: poja
    Размер скачиваемого торрента: 1.59 GB (1703453900 Bytes)

    Собственность / Possessions (2011) DVB от MediaClub | P2 скачать через торрент бесплатно
    загрузка...
    Рейтинг →
     (голосов: 1, оценка 3/5, голосовать можно 1 раз )

    Другие торренты по теме:

  • Право голоса. Семейная собственность (2013) WEBRip
  • Собственность дьявола / The Devils Own (1997) BDRip-AVC от Rulya74
  • Собственность дьявола / The Devils Own (1997) BDRip 1080p
  • Собственность Дьявола / The Devils Own (1997) BDRemux 1080p от MediaClub | D, P
  • Собственность дьявола / Devils Own, The (1997) HDRip от Scarabey | D скачать через торрент бесплатно
  • Собственность дьявола / The Devils Own (1997) BDRip 720p от Leonardo and Scarabey | Лицензия скачать через торрент бесплатно
  • Собственность / Possessions (2011) SATRip от ClubTorrent | P2 скачать через торрент бесплатно
  • Собственность / Possessions (2011) BDRip 1080p от CINEMANIA | НТВ скачать через торрент бесплатно


    • Комментарии (0):

      Информация

      Информация

        Посетители, находящиеся в группе Гости, не могут оставлять комментарии в данной новости.

        ↓ Меню



        ↓ Опрос

        А Вы добавили сайт в закладки?
        Да
        Не


        Top 10 за месяц (Фильмы)