.
Авторизация | Регистрация
Хочешь лучшие торренты? Добавь свой email!
Добавить
» » Революция / Revolution (2013-2014) WEB-DL 720p | LostFilm скачать торрент бесплатно




    Революция / Revolution (2013-2014) WEB-DL 720p | LostFilm скачать торрент бесплатно

    Опубликовал: Админ | Дата: 27-02-2015, 11:10 | Просмотров: 242



    Русское название: Революция
    Русское название в мировом прокате: Revolution
    Создали в: 2013-2014
    Категория жанра: Фантастика, боевик, драма, приключения
    Главный режиссер: Джон Фавро
    Актеры: Трэвис Фиммел, Клайв Стэнден, Кэтрин Уинник, Гэбриел Бирн, Джессалин Гилсиг, Густаф Скарсгард, Джефферсон Холл, Джордж Благден, Тадж Мерфи, Диармэйд Мурта

    Сюжет: Шэйн Каллахан, Кен Арнольд, Джанкарло Эспозито, Билли Бёрк, Тим Гини, Уильям Хатчингс, Элизабет Митчелл, Даниэлла Алонсо, Мария Хауэлл, Зак Орт, Дж.Д. Пардо, Майкл Дьюсенберг, Майк Холмс, Трэйси Спиридакос

    Снималось в: США, Warner Bros. Television, Bad Robot
    Время просмотра: 14 x ~ 00:43:00
    Перевод текста: Профессиональный многоголосый - LostFilm

    Качество фильма: WEB-DL (720p)
    Информация о видео: MPEG-4 AVC, ~ 4000 Кбит/с, 1280x720
    Информация о звуке rus: AC3, 6 ch, 384 Кбит/с
    Информация о звуке eng: AC3, 6 ch, 384 Кбит/с
    Субтитры: Английские

    Список серий
    01. Born in the U.S.A. / Рожденный в США
    02. There Will Be Blood / И прольется кровь
    03. Love Story / История любви
    04. Patriot Games / Игры патриотов
    05. One Riot, One Ranger / Одно нарушение, один рейнджер
    06. Dead Man Walking / Мертвец идёт
    07. The Patriot Act / Патриотический акт
    08. Come Blow Your Horn / Приди и протруби в свой рог
    09. Everyone Says I Love You / Все говорят, что я люблю тебя
    10. The Three Amigos / Три амигос
    11. Два моих отца / Mis Dos Padres
    12. Капитан Шустрик / Captain Trips
    13. Счастливый конец / Happy Endings
    14. Страх и ненависть / Fear and Loathing
    Инфо
    Полное имя : E:Revolution.S02.720p.WEB-DL.Rus.Eng.SubRevolution.S02E01.720p.WEB-DL.Rus.Eng.Sub.mkv
    Формат : Matroska
    Версия формата : Version 4 / Version 2
    Размер файла : 1,42 Гбайт
    Продолжительность : 42 м.
    Общий поток : 4722 Кбит/сек
    Дата кодирования : UTC 2013-12-20 15:27:10
    Программа кодирования : mkvmerge v6.5.0 (;Isn;t she lovely;) built on Oct 20 2013 12:50:05
    Библиотека кодирования : libebml v1.3.0 libmatroska v1.4.1

    Видео
    Идентификатор : 1
    Формат : AVC
    Формат/Информация : Advanced Video Codec
    Профиль формата : High@L3.1
    Параметр CABAC формата : Нет
    Параметр ReFrames формата : 2 кадра
    Идентификатор кодека : V_MPEG4/ISO/AVC
    Продолжительность : 42 м.
    Битрейт : 3860 Кбит/сек
    Ширина : 1280 пикселей
    Высота : 720 пикселей
    Соотношение сторон : 16:9
    Режим частоты кадров : Постоянный
    Частота кадров : 23,976 кадра/сек
    Цветовое пространство : YUV
    Субдискретизация насыщенности : 4:2:0
    Битовая глубина : 8 бит
    Тип развёртки : Прогрессивная
    Бит/(Пиксели*Кадры) : 0.175
    Размер потока : 1,16 Гбайт (82%)
    Язык : English
    Default : Да
    Forced : Нет
    Основные цвета : BT.709
    Характеристики трансфера : BT.709
    Коэффициенты матрицы : BT.709

    Аудио #1
    Идентификатор : 2
    Формат : AC-3
    Формат/Информация : Audio Coding 3
    Расширение режима : CM (complete main)
    Параметр Endianness формата : Big
    Идентификатор кодека : A_AC3
    Продолжительность : 42 м.
    Вид битрейта : Постоянный
    Битрейт : 384 Кбит/сек
    Каналы : 6 каналов
    Расположение каналов : Front: L C R, Side: L R, LFE
    Частота : 48,0 КГц
    Битовая глубина : 16 бит
    Метод сжатия : С потерями
    Размер потока : 118 Мбайт (8%)
    Заголовок : LostFilm
    Язык : Russian
    Default : Да
    Forced : Нет

    Аудио #2
    Идентификатор : 3
    Формат : AC-3
    Формат/Информация : Audio Coding 3
    Расширение режима : CM (complete main)
    Параметр Endianness формата : Big
    Идентификатор кодека : A_AC3
    Продолжительность : 42 м.
    Вид битрейта : Постоянный
    Битрейт : 384 Кбит/сек
    Каналы : 6 каналов
    Расположение каналов : Front: L C R, Side: L R, LFE
    Частота : 48,0 КГц
    Битовая глубина : 16 бит
    Метод сжатия : С потерями
    Размер потока : 118 Мбайт (8%)
    Язык : English
    Default : Нет
    Forced : Нет

    Текст
    Идентификатор : 4
    Формат : UTF-8
    Идентификатор кодека : S_TEXT/UTF8
    Идентификатор кодека/Информация : UTF-8 Plain Text
    Язык : English
    Default : Нет
    Forced : Нет





    Раздача будет вестись путём добавления
    Раздача ведётся путём добавления новых серий; при каждом добавлении создаётся новый торрент. Чтобы начать докачку новой серии, пользователям необходимо сделать следующее:
    (1) остановить скачивание,
    (2) удалить старый торрент у себя из клиента (старые серии удалять не надо),
    (3) скачать новый торрент и запустить его у себя в клиенте вместо старого, при этом указать клиенту путь в старую папку куда и должно происходить скачивание новых серий.

    Ваш клиент при этом должен произвести хеширование (проверку) старой папки (если не производит сам - помогите ему сделать это), и будет докачивать только те серии которых у вас ещё нет. Старые серии при этом не удаляются, а продолжают раздаваться!

    Eсли вы уже удалили старые серии, то предотвратить повторную закачку старых серий можно, отжав галочку в соответствующих местах при запуске нового торрента. По возможности, желательно не удалять старые серии как можно дольше чтобы релизёр не столько продолжал раздавать старые серии, а смог сконцентрироваться на новых.
    Как докачать пропущенные файлы торрента В клиенте µTorrent

    Ссылка на ютуб
    Ссылка на DepositFiles
    Ссылка на клиент 2.2.1 При установке не обновляйте!!!


    1) Выделяем торрент одним нажатием левой кнопкой мыши.



    2) Заходим на вкладку Files (Файлы)



    3) И меняем нажатием правой кнопкой мыши приоритет на Normal (нормальный)



    Размер скачиваемого торрента: 20.39 GB (21890167912 Bytes)

    Революция / Revolution (2013-2014) WEB-DL 720p | LostFilm торрент скачать бесплатно
    загрузка...
    Рейтинг →
     (голосов: 1, оценка 4/5, голосовать можно 1 раз )

    Другие торренты по теме:

  • Революция / Revolution (2012-2013) WEB-DL 720p | LostFilm
  • Матрица: Революция / The Matrix Revolutions (2003) BDRip от Torrent-Xzona | КПК | Лицензия
  • Russian Revolution / Русская Революция - Баллады Каменных Лесов (2012) МР3
  • Космические рейнджеры HD: Революция (2013) PC | Repack от Fenixx
  • BBC: Виртуальная революция / BBC: The Virtual Revolution (2010) HDTVRip-AVC
  • Painkiller: Революция / Painkiller: Revolution (2012) PC
  • OST - Космические Рейнджеры HD: Революция (2013) MP3
  • VA - Революция молодежи на DFM (2013) МР3


    • Комментарии (0):

      Информация

      Информация

        Посетители, находящиеся в группе Гости, не могут оставлять комментарии в данной новости.

        ↓ Меню



        ↓ Опрос

        А Вы добавили сайт в закладки?
        Да
        Не


        Top 10 за месяц (Фильмы)