.
Авторизация | Регистрация
Хочешь лучшие торренты? Добавь свой email!
Добавить
» » Спасите Конкорд / Concorde Affaire (1979) HDRip-AVC | iPhone | D,P скачать торрент бесплатно




    Спасите Конкорд / Concorde Affaire (1979) HDRip-AVC | iPhone | D,P скачать торрент бесплатно

    Опубликовал: Админ | Дата: 27-02-2015, 11:10 | Просмотров: 274



    Спасите Конкорд / Concorde Affaire (1979) HDRip-AVC | iPhone | D,P

    Русское название: Спасите Конкорд
    Русское название в мировом прокате: Concorde Affaire
    Создали в: 1979
    Категория жанра: боевик, триллер, криминал
    Главный режиссер: Руджеро Деодато
    Актеры: Джеймс Франсискус, Мимзи Фармер, Венантино Венантини, Фьямма Мальоне, Эдмунд Пурдом, Франсиско Шарль, Франческо Карнелутти, Оттавиано Дэлль’Акква, Альдо Барберито, Роберто Санти

    Сюжет фильма:
    Конкуренты готовы на все, чтобы не допустить Конкорд на мировой рынок. Во время первого испытательного полета белоснежный лайнер по неизвестным причинам падает в воды Карибского моря. Чудом выжившую стюардессу спасают рыбаки. Как только весть доходит до скандально-известного журналиста Мозеса Броди, он вылетает на Антильские острова, чтобы расследовать трагедию. Начинается смертельная схватка с неуловимыми и жестокими преступниками... Тайна гибели самолета - на дне Карибского моря. Единственный свидетель - исчез. За главным героем идет настоящая охота. Времени - в обрез: второй Конкорд уже вылетел из Лондона, и пассажиры не подозревают о нависшей над ними смертельной опасности...



    Снималось в: Италия
    Киностудия: Dania Film, National Cinematografica
    Время просмотра: 01:31:30
    Перевод текста: Русский дублированный, профессиональный многоголосый закадровый

    Файл
    Кодек для видео: H.264
    Качество фильма: HDRip-AVC 480p
    Информация о видео: 640x362@851x362 (2.35:1) at 23.976 fps, AVC at 1800 kbps
    Информация о звуке:
    1: АС3 2.0 138 kbps - Русский дублированный
    2: АС3 2.0 129 kbps - Русский профессиональный многоголосый закадровый
    3: АС3 2.0 129 kbps - Английский
    Субтитры: Русский

    MI

    General
    Complete name : C:CREATE480outConcorde Affaire.79.1979 (SD).m4v
    Format : MPEG-4
    Codec ID : M4V
    File size : 1.45 GiB
    Duration : 1h 35mn
    Overall bit rate mode : Variable
    Overall bit rate : 2 180 Kbps
    Movie name : Спасите Конкорд
    Performer : Ruggero Deodato
    Genre : Action
    Recorded date : UTC 1979-03-23 08:00:00
    Encoded date : UTC 2014-03-06 09:59:55
    Tagged date : UTC 2014-03-06 15:05:24
    Copyright : Dania Film, National Cinematografica
    Cover : Yes
    sonm : Concorde Affaire ;79
    desc : Конкуренты готовы на все, чтобы не допустить Конкорд на мировой рынок. Во время первого испытательного полета белоснежный лайнер по неизвестным причинам падает в воды Карибского моря. Единственный свидетель исчез.
    ldes : Конкуренты готовы на все, чтобы не допустить Конкорд на мировой рынок. Во время первого испытательного полета белоснежный лайнер по неизвестным причинам падает в воды Карибского моря. Единственный свидетель исчез. За главным героем идет настоящая охота. Времени — в обрез: второй Конкорд уже вылетел из Лондона, и пассажиры не подозревают о нависшей над ними смертельной опасности…
    stik : 9
    rtng : 0
    cnID : 25747
    xid : Apple:vendor_id:1979-25747

    Video #1
    ID : 1
    Format : AVC
    Format/Info : Advanced Video Codec
    Format profile : Baseline@L3.0
    Format settings, CABAC : No
    Format settings, ReFrames : 2 frames
    Codec ID : avc1
    Codec ID/Info : Advanced Video Coding
    Duration : 1h 35mn
    Bit rate : 1 800 Kbps
    Maximum bit rate : 7 713 Kbps
    Width : 640 pixels
    Height : 362 pixels
    Display aspect ratio : 2.35:1
    Frame rate mode : Constant
    Frame rate : 23.976 fps
    Color space : YUV
    Chroma subsampling : 4:2:0
    Bit depth : 8 bits
    Scan type : Progressive
    Bits/(Pixel*Frame) : 0.324
    Stream size : 1.20 GiB (82%)
    Title : Concorde Affaire _1979_
    Writing library : x264 core 140 r2377 40 929f149 tMod 8-bit@4:2:0 X86_64
    Encoding settings : cabac=0 / ref=2 / deblock=1:-2:-2 / analyse=0x1:0x131 / me=umh / subme=7 / psy=1 / fade_compensate=1.00 / psy_rd=1.00:0.15 / mixed_ref=1 / me_range=32 / chroma_me=1 / trellis=2 / 8x8dct=0 / cqm=0 / deadzone=21,11 / fast_pskip=0 / chroma_qp_offset=-3 / threads=12 / lookahead_threads=2 / sliced_threads=0 / nr=0 / decimate=0 / interlaced=0 / bluray_compat=0 / constrained_intra=0 / fgo=0 / bframes=0 / weightp=0 / keyint=250 / keyint_min=23 / scenecut=40 / intra_refresh=0 / rc_lookahead=96 / rc=2pass / mbtree=1 / bitrate=1800 / ratetol=1.0 / qcomp=0.70 / qpmin=0:0:0 / qpmax=69:69:69 / qpstep=4 / cplxblur=20.0 / qblur=0.5 / vbv_maxrate=5000 / vbv_bufsize=5000 / nal_hrd=none / filler=0 / ip_ratio=1.35 / aq=4:0.90 / aq-sensitivity=10.00 / aq-factor=1.00:1.00:1.00 / aq2=0 / aq3=0
    Language : English
    Encoded date : UTC 2014-03-06 09:59:55
    Tagged date : UTC 2014-03-06 10:00:39
    Matrix coefficients : BT.709

    Video #2
    ID : 7
    Format : JPEG
    Codec ID : jpeg
    Duration : 1h 35mn
    Bit rate mode : Variable
    Bit rate : 456 bps
    Width : 640 pixels
    Height : 272 pixels
    Display aspect ratio : 2.35:1
    Frame rate mode : Variable
    Frame rate : 0.002 fps
    Minimum frame rate : 0.002 fps
    Maximum frame rate : 0.004 fps
    Color space : YUV
    Chroma subsampling : 4:2:0
    Bit depth : 8 bits
    Compression mode : Lossy
    Bits/(Pixel*Frame) : 1.310
    Stream size : 334 KiB (0%)
    Language : English
    Encoded date : UTC 2014-03-06 15:05:02
    Tagged date : UTC 2014-03-06 15:05:02

    Audio #1
    ID : 2
    Format : AAC
    Format/Info : Advanced Audio Codec
    Format profile : LC
    Codec ID : 40
    Duration : 1h 35mn
    Bit rate mode : Variable
    Bit rate : 144 Kbps
    Maximum bit rate : 161 Kbps
    Channel(s) : 2 channels
    Channel positions : Front: L R
    Sampling rate : 48.0 KHz
    Compression mode : Lossy
    Stream size : 98.5 MiB (7%)
    Title : DUB
    Language : Russian
    Encoded date : UTC 2014-03-06 09:49:14
    Tagged date : UTC 2014-03-06 10:00:39

    Audio #2
    ID : 3
    Format : AAC
    Format/Info : Advanced Audio Codec
    Format profile : LC
    Codec ID : 40
    Duration : 1h 35mn
    Bit rate mode : Variable
    Bit rate : 121 Kbps
    Maximum bit rate : 151 Kbps
    Channel(s) : 2 channels
    Channel positions : Front: L R
    Sampling rate : 48.0 KHz
    Compression mode : Lossy
    Stream size : 82.7 MiB (6%)
    Title : MVO
    Language : Russian
    Encoded date : UTC 2014-03-06 09:54:06
    Tagged date : UTC 2014-03-06 10:00:39

    Audio #3
    ID : 4
    Format : AAC
    Format/Info : Advanced Audio Codec
    Format profile : LC
    Codec ID : 40
    Duration : 1h 35mn
    Bit rate mode : Variable
    Bit rate : 112 Kbps
    Maximum bit rate : 135 Kbps
    Channel(s) : 2 channels
    Channel positions : Front: L R
    Sampling rate : 48.0 KHz
    Compression mode : Lossy
    Stream size : 76.3 MiB (5%)
    Title : Original
    Language : English
    Encoded date : UTC 2014-03-06 09:57:07
    Tagged date : UTC 2014-03-06 10:00:39

    Text
    ID : 5
    Format : Timed Text
    Muxing mode : sbtl
    Codec ID : tx3g
    Duration : 1h 34mn
    Bit rate mode : Variable
    Bit rate : 80 bps
    Stream size : 55.4 KiB (0%)
    Language : Russian
    Encoded date : UTC 2014-03-06 10:00:39
    Tagged date : UTC 2014-03-06 10:00:39

    Menu
    ID : 6
    Codec ID : text
    Duration : 1h 35mn
    Language : English
    Encoded date : UTC 2014-03-06 10:02:53
    Tagged date : UTC 2014-03-06 10:02:53
    Bit rate mode : CBR
    iTunes tags

    Sort Name: Concorde Affaire ;79
    XID: Apple:vendor_id:1979-25747
    contentID: 25747
    Copyright: Dania Film, National Cinematografica
    Screenwriters: Ренцо Джента, Эрнесто Гастальди, Альберто Фьоретти
    Producers: Мино Лой, Лучано Мартино
    Director: Руджеро Деодато
    Cast: Джеймс Франсискус, Мимзи Фармер, Венантино Венантини, Фьямма Мальоне, Эдмунд Пурдом, Франсиско Шарль, Франческо Карнелутти, Оттавиано Дэлль’Акква, Альдо Барберито, Роберто Санти // James Franciscus (Moses Brody), Mimsy Farmer (Jean Beneyton), Venantino Venantini (Forsythe), Fiamma Maglione (Nicole Brody)
    Studio: Dania Film, National Cinematografica
    Long Deion: Конкуренты готовы на все, чтобы не допустить Конкорд на мировой рынок. Во время первого испытательного полета белоснежный лайнер по неизвестным причинам падает в воды Карибского моря. Единственный свидетель исчез. За главным героем идет настоящая охота. Времени — в обрез: второй Конкорд уже вылетел из Лондона, и пассажиры не подозревают о нависшей над ними смертельной опасности…
    Deion: Конкуренты готовы на все, чтобы не допустить Конкорд на мировой рынок. Во время первого испытательного полета белоснежный лайнер по неизвестным причинам падает в воды Карибского моря. Единственный свидетель исчез.
    Release Date: 1979-03-23T08:00:00Z
    Genre: Action
    Artist: Ruggero Deodato
    Name: Спасите Конкорд
    x264

    x264 info: frame I:2756 Avg QP:19.25 size: 24609
    x264 info: frame P:134390 Avg QP:20.88 size: 9046
    x264 info: mb I I16..4: 33.8% 0.0% 66.2%
    x264 info: mb P I16..4: 1.4% 0.0% 1.8% P16..4: 54.8% 21.4% 11.3% 1.7% 0.8% skip: 7.0%
    x264 info: coded y,uvDC,uvAC intra: 66.0% 61.9% 23.8% inter: 49.8% 35.8% 7.8%
    x264 info: i16 v,h,dc,p: 32% 15% 16% 37%
    x264 info: i4 v,h,dc,ddl,ddr,vr,hd,vl,hu: 19% 16% 20% 7% 8% 7% 9% 6% 7%
    x264 info: i8c dc,h,v,p: 59% 17% 18% 6%
    x264 info: ref P L0: 81.2% 18.8%
    x264 info: kb/s:1795.10




    Залил: gekka
    Размер скачиваемого торрента: 1.45 GB (1559076532 Bytes)

    Спасите Конкорд / Concorde Affaire (1979) HDRip-AVC | iPhone | D,P торрент скачать бесплатно
    загрузка...
    Рейтинг →
     (голосов: 1, оценка 3/5, голосовать можно 1 раз )

    Другие торренты по теме:

  • Спасите Конкорд / Concorde Affaire 79 (1979) DVD5
  • Спасите Конкорд / Concorde Affaire 79 (1979) HDRip от Leon-masl | D, P скачать через торрент бесплатно
  • Спасите Конкорд / Concorde Affaire 79 (1979) BDRip 720p скачать через торрент бесплатно
  • Спасите Конкорд / Concorde Affaire 79 (1979) DVD9 | P
  • Спасите Конкорд / Concorde Affaire 79 (1979) DVD9 | P


    • Комментарии (0):

      Информация

      Информация

        Посетители, находящиеся в группе Гости, не могут оставлять комментарии в данной новости.

        ↓ Меню



        ↓ Опрос

        А Вы добавили сайт в закладки?
        Да
        Не


        Top 10 за месяц (Фильмы)