.
Авторизация | Регистрация
Хочешь лучшие торренты? Добавь свой email!
Добавить
» » День независимости / Independence Day (1996) HDRip-AVC | iPhone | P скачать торрент бесплатно




    День независимости / Independence Day (1996) HDRip-AVC | iPhone | P скачать торрент бесплатно

    Опубликовал: Админ | Дата: 27-02-2015, 11:10 | Просмотров: 251



    День независимости / Independence Day (1996) HDRip-AVC | iPhone | P

    Русское название: День независимости
    Русское название в мировом прокате: Independence Day
    Создали в: 1996
    Категория жанра: фантастика, боевик
    Главный режиссер: Роланд Эммерих
    Актеры: Уилл Смит, Джефф Голдблюм, Билл Пуллман, Мэри МакДоннелл, Джадд Хёрш, Роберт Лоджа, Рэнди Куэйд, Маргарет Колин, Вивика А. Фокс, Джеймс Ребхорн

    Сюжет фильма:
    Прилетевшие на Землю пришельцы не стали вступать в переговоры. Они расположили свои огромные корабли над крупнейшими городами и уничтожили их, не дав людям времени на эвакуацию. Спастись смогли лишь те, кто первым распознал угрозу. К счастью для Америки, в их числе были президент страны и ученые, которые смогли придумать хитроумный план уничтожения всей инопланетной армады.



    Снималось в: США
    Киностудия: 20th Century Fox
    Время просмотра: 02:24:48
    Перевод текста: Русский профессиональный многоголосый закадровый

    Файл
    Кодек для видео: H.264
    Качество фильма: HDRip-AVC 480p
    Информация о видео: 640x362@851x362 (2.35:1) at 23.976 fps, AVC at 1800 kbps
    Информация о звуке:
    1: АС3 2.0 140 kbps - Русский профессиональный многоголосый закадровый (Blu-ray CEE)
    2: АС3 2.0 144 kbps - Русский профессиональный многоголосый закадровый (HTB )
    Субтитры: Русский, Английский

    MI

    General
    Complete name : C:CREATE480outIndependence Day.1996 (SD).m4v
    Format : MPEG-4
    Codec ID : M4V
    File size : 2.11 GiB
    Duration : 2h 24mn
    Overall bit rate mode : Variable
    Overall bit rate : 2 085 Kbps
    Movie name : День независимости
    Performer : Roland Emmerich
    Genre : Action Adventure
    Recorded date : UTC 1996-08-09 07:00:00
    Encoded date : UTC 2014-03-07 15:16:18
    Tagged date : UTC 2014-03-07 15:32:01
    Copyright : © 1998 Twentieth Century Fox Film Corporation.
    Cover : Yes
    Comment : We;ve always believed we weren;t alone. On July 4th, we;ll wish we were
    sonm : Independence Day
    desc : На Земле принимается сигнал, посланный источником явно неземного происхождения. Источник этот приближается, и на уши поднимается вся планета. Никто, правда, не ожидал, что инопланетяне окажутся такими огромными и в таком количестве.
    ldes : На Земле принимается сигнал, посланный источником явно неземного происхождения. Источник этот приближается, и на уши поднимается вся планета. Никто, правда, не ожидал, что инопланетяне окажутся такими огромными и в таком количестве.
    stik : 9
    rtng : 0
    cnID : 272967721
    xid : Apple:vendor_id:1996-2022
    iTunEXTC : mpaa|PG-13|300|

    Video #1
    ID : 1
    Format : AVC
    Format/Info : Advanced Video Codec
    Format profile : Baseline@L3.0
    Format settings, CABAC : No
    Format settings, ReFrames : 2 frames
    Codec ID : avc1
    Codec ID/Info : Advanced Video Coding
    Duration : 2h 24mn
    Bit rate : 1 800 Kbps
    Maximum bit rate : 7 547 Kbps
    Width : 640 pixels
    Height : 362 pixels
    Display aspect ratio : 2.35:1
    Frame rate mode : Constant
    Frame rate : 23.976 fps
    Color space : YUV
    Chroma subsampling : 4:2:0
    Bit depth : 8 bits
    Scan type : Progressive
    Bits/(Pixel*Frame) : 0.324
    Stream size : 1.81 GiB (86%)
    Title : Independence Day _1996_
    Writing library : x264 core 140 r2377 40 929f149 tMod 8-bit@4:2:0 X86_64
    Encoding settings : cabac=0 / ref=2 / deblock=1:-2:-2 / analyse=0x1:0x131 / me=umh / subme=7 / psy=1 / fade_compensate=1.00 / psy_rd=1.00:0.15 / mixed_ref=1 / me_range=32 / chroma_me=1 / trellis=2 / 8x8dct=0 / cqm=0 / deadzone=21,11 / fast_pskip=0 / chroma_qp_offset=-3 / threads=12 / lookahead_threads=2 / sliced_threads=0 / nr=0 / decimate=0 / interlaced=0 / bluray_compat=0 / constrained_intra=0 / fgo=0 / bframes=0 / weightp=0 / keyint=250 / keyint_min=23 / scenecut=40 / intra_refresh=0 / rc_lookahead=96 / rc=2pass / mbtree=1 / bitrate=1800 / ratetol=1.0 / qcomp=0.70 / qpmin=0:0:0 / qpmax=69:69:69 / qpstep=4 / cplxblur=20.0 / qblur=0.5 / vbv_maxrate=5000 / vbv_bufsize=5000 / nal_hrd=none / filler=0 / ip_ratio=1.35 / aq=4:0.90 / aq-sensitivity=10.00 / aq-factor=1.00:1.00:1.00 / aq2=0 / aq3=0
    Language : English
    Encoded date : UTC 2014-03-07 15:16:18
    Tagged date : UTC 2014-03-07 15:16:59
    Matrix coefficients : BT.709

    Video #2
    ID : 7
    Format : JPEG
    Codec ID : jpeg
    Duration : 2h 24mn
    Bit rate mode : Variable
    Bit rate : 1 835 bps
    Width : 640 pixels
    Height : 272 pixels
    Display aspect ratio : 2.35:1
    Frame rate mode : Variable
    Frame rate : 0.006 fps
    Minimum frame rate : 0.002 fps
    Maximum frame rate : 0.045 fps
    Color space : YUV
    Chroma subsampling : 4:2:0
    Bit depth : 8 bits
    Compression mode : Lossy
    Bits/(Pixel*Frame) : 1.757
    Stream size : 1.97 MiB (0%)
    Language : English
    Encoded date : UTC 2014-03-07 15:31:56
    Tagged date : UTC 2014-03-07 15:31:57

    Audio #1
    ID : 2
    Format : AAC
    Format/Info : Advanced Audio Codec
    Format profile : LC
    Codec ID : 40
    Duration : 2h 24mn
    Bit rate mode : Variable
    Bit rate : 140 Kbps
    Maximum bit rate : 192 Kbps
    Channel(s) : 2 channels
    Channel positions : Front: L R
    Sampling rate : 48.0 KHz
    Compression mode : Lossy
    Stream size : 145 MiB (7%)
    Title : MVO Blu_ray CEE
    Language : Russian
    Encoded date : UTC 2014-03-07 15:08:27
    Tagged date : UTC 2014-03-07 15:16:59

    Audio #2
    ID : 3
    Format : AAC
    Format/Info : Advanced Audio Codec
    Format profile : LC
    Codec ID : 40
    Duration : 2h 24mn
    Bit rate mode : Variable
    Bit rate : 144 Kbps
    Maximum bit rate : 183 Kbps
    Channel(s) : 2 channels
    Channel positions : Front: L R
    Sampling rate : 48.0 KHz
    Compression mode : Lossy
    Stream size : 149 MiB (7%)
    Title : MVO HTB_
    Language : Russian
    Encoded date : UTC 2014-03-07 15:13:44
    Tagged date : UTC 2014-03-07 15:16:59

    Text #1
    ID : 4
    Format : Timed Text
    Muxing mode : sbtl
    Codec ID : tx3g
    Duration : 2h 24mn
    Bit rate mode : Variable
    Bit rate : 88 bps
    Stream size : 93.6 KiB (0%)
    Title : Subtitle Russian
    Language : Russian
    Encoded date : UTC 2014-03-07 15:16:59
    Tagged date : UTC 2014-03-07 15:16:59

    Text #2
    ID : 5
    Format : Timed Text
    Muxing mode : sbtl
    Codec ID : tx3g
    Duration : 2h 24mn
    Bit rate mode : Variable
    Bit rate : 56 bps
    Stream size : 59.0 KiB (0%)
    Title : Subtitle English
    Language : English
    Encoded date : UTC 2014-03-07 15:16:59
    Tagged date : UTC 2014-03-07 15:16:59

    Menu
    ID : 6
    Codec ID : text
    Duration : 2h 24mn
    Language : English
    Encoded date : UTC 2014-03-07 15:18:17
    Tagged date : UTC 2014-03-07 15:18:17
    Bit rate mode : CBR
    iTunes tags

    Sort Name: Independence Day
    XID: Apple:vendor_id:1996-2022
    contentID: 272967721
    Copyright: © 1998 Twentieth Century Fox Film Corporation.
    Screenwriters: Дин Девлин, Роланд Эммерих
    Producers: Дин Девлин, Роланд Эммерих, Уте Эммерих
    Director: Роланд Эммерих
    Cast: Уилл Смит, Джефф Голдблюм, Билл Пуллман, Мэри МакДоннелл, Джадд Хёрш, Роберт Лоджа, Рэнди Куэйд, Маргарет Колин, Вивика А. Фокс, Джеймс Ребхорн // Will Smith (Captain Steven Hiller), Bill Pullman (President Thomas J. Whitmore), Jeff Goldblum (David Levinson), Mary McDonnell (First Lady Marilyn Whitmore), Judd Hirsch (Julius Levinson), Robert Loggia (General William Grey), Randy Quaid (Russell Casse), Margaret Colin (Constance Spano), Vivica A. Fox (Jasmine Dubrow), James Rebhorn (Albert Nimzicki), Harvey Fierstein (Marty Gilbert), Adam Baldwin (Major Mitchell), James Duval (Miguel Casse), Lisa Jakub (Alicia Casse), Giuseppe Andrews (Troy Casse), Harry Connick, Jr. (Captain Jimmy Wilder), Mae Whitman (Patricia Whitmore), Kiersten Warren (Tiffany), John Storey (Dr. Isaacs), Frank Novak (Teddy), Devon Gummersall (Philip), Leland Orser (Technician/ Medical Assistant 1), Mirron E. Willis (Aide), Ross Lacy (Aide), David Pressman (Whitmore;s Aide), Raphael Sbarge (Commander / Tech), Bobby Hosea (Commanding Officer), Dan Lauria (Commanding Officer), Steve Giannelli (Radar Technician), Eric Paskel (Radar Technician), Carlos Lac?mara (Radar Operator), John Bennett Perry (Secret Service Agent), Troy Willis (Secret Service Agent), Tim Kelleher (Technician), Wayne Wilderson (Area 51 Technician), Jay Acovone (Area 51 Guard), James Wong (SETI Technician 1), Jana Marie Hupp (SETI Technician 3), Robert Pine (Chief of Staff), David Channell (Secret Service Agent), John Capodice (Mario), Greg Collins (Military Aide), Derek Webster (Sky Crane Pilot), Mark Fite (Pilot), Levan Uchaneishvili (Russian Pilot (Levani)), Kristof Konrad (Russian Pilot), Kevin Sifuentes (Tank Commander), Elston Ridgle (Soldier), Randy Oglesby (Mechanic), Jack Moore (Mechanic), Barry Del Sherman (Street Preacher), Lyman Ward (Secret Service Agent), Anthony Crivello (Lincoln), Richard Speight, Jr. (Ed), Joe Fowler (Reporter), Sharon Tay (Reporter), Peter J. Lucas (Russian Reporter), Yelena Danova (Russian Newscaster), Johnny Kim (Korean Newscaster), Vanessa J. Wells (Newscaster), Sayed Badreya (Arab Pilot), Adam Tomei (Sailor), John Bradley (Lucas), Kimberly Beck (Housewife), Andrew Keegan (Older Boy), Jim Piddock (Reginald), Pat Skipper (Redneck), Erick Avari (SETI Chief), Brent Spiner (Dr. Brackish Okun)
    Studio: 20th Century Fox
    Rating: 4
    Long Deion: На Земле принимается сигнал, посланный источником явно неземного происхождения. Источник этот приближается, и на уши поднимается вся планета. Никто, правда, не ожидал, что инопланетяне окажутся такими огромными и в таком количестве.
    Deion: На Земле принимается сигнал, посланный источником явно неземного происхождения. Источник этот приближается, и на уши поднимается вся планета. Никто, правда, не ожидал, что инопланетяне окажутся такими огромными и в таком количестве.
    Release Date: 1996-08-09T07:00:00Z
    Genre: Action Adventure
    Comments: We;ve always believed we weren;t alone. On July 4th, we;ll wish we were
    Artist: Roland Emmerich
    Name: День независимости

    x264

    x264 info: frame I:4869 Avg QP:17.98 size: 21889
    x264 info: frame P:203442 Avg QP:20.16 size: 9055
    x264 info: mb I I16..4: 37.4% 0.0% 62.6%
    x264 info: mb P I16..4: 1.8% 0.0% 2.5% P16..4: 51.1% 20.0% 10.2% 1.8% 0.8% skip:11.7%
    x264 info: coded y,uvDC,uvAC intra: 60.6% 69.9% 42.0% inter: 44.9% 41.4% 18.3%
    x264 info: i16 v,h,dc,p: 42% 14% 10% 34%
    x264 info: i4 v,h,dc,ddl,ddr,vr,hd,vl,hu: 31% 14% 16% 6% 7% 9% 6% 7% 4%
    x264 info: i8c dc,h,v,p: 52% 15% 25% 8%
    x264 info: ref P L0: 77.5% 22.5%
    x264 info: kb/s:1794.32




    Залил: gekka
    Размер скачиваемого торрента: 2.11 GB (2264912966 Bytes)

    День независимости / Independence Day (1996) HDRip-AVC | iPhone | P торрент скачать бесплатно
    загрузка...
    Рейтинг →
     (голосов: 1, оценка 3/5, голосовать можно 1 раз )

    Другие торренты по теме:

  • День независимости / Independence Day (1996) BDRip от HQCLUB
  • OST - День независимости / Independence Day (2010)
  • День Независимости Республики Беларусь: Mинск (2013) DVBRip
  • Катастрофа на День независимости / Independence Daysaster (2013) HDRip | P скачать через торрент бесплатно
  • День независимости / Independence Day (1996) BDRip 720p от Leonardo and Scarabey | P
  • Катастрофа на День независимости / Independence Daysaster (2013) HDRip 720p | P скачать через торрент бесплатно
  • День независимости / Independence Day (1996) HDRip-AVC | Режисерская версия | P
  • День независимости / Independence Day (1996) BDRip 720p от NNNB | Extended Cut | Remastered | P, A


    • Комментарии (0):

      Информация

      Информация

        Посетители, находящиеся в группе Гости, не могут оставлять комментарии в данной новости.

        ↓ Меню



        ↓ Опрос

        А Вы добавили сайт в закладки?
        Да
        Не


        Top 10 за месяц (Фильмы)