.
Авторизация | Регистрация
Хочешь лучшие торренты? Добавь свой email!
Добавить
» » Изо всех сил / Over the Top (1987) BDRip от New-Team | P, P2, A скачать торрент бесплатно




    Изо всех сил / Over the Top (1987) BDRip от New-Team | P, P2, A скачать торрент бесплатно

    Опубликовал: Админ | Дата: 27-02-2015, 11:10 | Просмотров: 260

    Rocky, Rambo, Cobra And Now _Hawk_, In The Biggest Fight Of His Life



    Снималось в: США / Производство: Cannon Group, Golan-Globus Productions Ltd., Warner Bros. Pictures

    Категория жанра: боевик, драма, семейный, спорт
    Создали в: 1987
    Время просмотра: 01:33:36
    Перевод текста:
    Профессиональный (многоголосый) - 20th Century Fox
    Профессиональный (многоголосый) - НТВ
    Профессиональный (многоголосый) - СТС
    Профессиональный (двухголосый) - Фортуна-фильм
    Авторский (одноголосый) - Гаврилов
    Авторский (одноголосый) - Немахов
    Субтитры подготовлены: русский (2 вида), английский (SDH), украинский
    Оригинальная аудиодорожка: английский

    Главный режиссер: Менахем Голан / Menahem Golan

    Актеры: Сильвестр Сталлоне, Роберт Лоджа, Сьюзан Блейкли, Рик Цумвальт, Дэвид Менденхолл, Крис МакКарти, Терри Фанк, Боб Битти, Аллан Граф, Мэджик Шварц...

    Сюжет: Водитель грузовика Линкольн Хоук, по прозвищу Ястреб, едет в Лас-Вегас на чемпионат мира по армрестлингу. У него много забот: надо встретиться и поговорить с бывшей женой, умирающей от странной болезни сердца; проведать, сломав ворота и разобравшись с телохранителями, любимого тестя и любой ценой заполучить сына, брошенного 10 лет назад. Сын, в начале принявший отца в штыки, станет опорой Ястреба и поможет ему выиграть чемпионат.



    Качество фильма: BDRip / Blu-ray 1080p
    Тип видео: AVI

    Информация о видео: 720x304 (2.35:1), 23.976 fps, XVID ~1772 kbps avg, 0.338 bit/pixel
    Информация о звуке 1: русский, Dolby Digital Audio 448 kbps 5.1 / 48 kHz / DN -4dB - MVO - 20th Century Fox
    Информация о звуке 2: русский, Dolby Digital Audio 192 kbps 2.0 / 48 kHz / DN -4dB - MVO - НТВ (отдельным файлом)
    Информация о звуке 3: русский, Dolby Digital Audio 192 kbps 2.0 / 48 kHz / DN -4dB - MVO - СТС (отдельным файлом)
    Информация о звуке 4: русский, Dolby Digital Audio 192 kbps 2.0 / 48 kHz / DN -4dB - DVO - Фортуна-фильм (отдельным файлом)
    Информация о звуке 5: русский, Dolby Digital Audio 192 kbps 2.0 / 48 kHz / DN -4dB - AVO - Гаврилов (отдельным файлом)
    Информация о звуке 6: русский, Dolby Digital Audio 192 kbps 2.0 / 48 kHz / DN -4dB - AVO - Немахов (отдельным файлом)
    Информация о звуке 7: английский, Dolby Digital Audio 448 kbps 5.1 / 48 kHz / DN -4dB (отдельным файлом)
    Тип видео субтитров: SoftSub (srt)

    Раздача от:
    MediaInfo

    Общее
    Полное имя : Izo.vseh.sil.1987.P.BDRip_New-Team_by_avproh.avi
    Формат : AVI
    Формат/Информация : Audio Video Interleave
    Размер файла : 1,46 Гбайт
    Продолжительность : 1 ч. 33 м.
    Общий поток : 2229 Кбит/сек
    Программа кодирования : VirtualDubModRus 1.5.10.2 (build 2542/release)
    Библиотека кодирования : VirtualDubMod build 2542/release

    Видео
    Идентификатор : 0
    Формат : MPEG-4 Visual
    Профиль формата : Advanced Simple@L5
    Параметр BVOP формата : 1
    Параметр QPel формата : Нет
    Параметр GMC формата : Без точки перехода
    Параметр матрицы формата : Выборочная
    Идентификатор кодека : XVID
    Идентификатор кодека/Подсказка : XviD
    Продолжительность : 1 ч. 33 м.
    Битрейт : 1772 Кбит/сек
    Ширина : 720 пикселей
    Высота : 304 пикселя
    Соотношение сторон : 2,35:1
    Частота кадров : 23,976 кадра/сек
    Цветовое пространство : YUV
    Субдискретизация насыщенности : 4:2:0
    Битовая глубина : 8 бит
    Тип развёртки : Прогрессивная
    Метод сжатия : С потерями
    Бит/(Пиксели*Кадры) : 0.338
    Размер потока : 1,16 Гбайт (79%)
    Библиотека кодирования : XviD 73

    Аудио
    Идентификатор : 1
    Формат : AC-3
    Формат/Информация : Audio Coding 3
    Расширение режима : CM (complete main)
    Параметр Endianness формата : Big
    Идентификатор кодека : 2000
    Продолжительность : 1 ч. 33 м.
    Вид битрейта : Постоянный
    Битрейт : 448 Кбит/сек
    Каналы : 6 каналов
    Расположение каналов : Front: L C R, Side: L R, LFE
    Частота : 48,0 КГц
    Битовая глубина : 16 бит
    Метод сжатия : С потерями
    Размер потока : 300 Мбайт (20%)
    Выравнивание : Разделение по промежуткам
    Продолжительность промежутка : 42 мс. (1,00 видеокадр)
    Время предзагрузки промежутка : 500 мс.

    Скриншоты для ознакомления:



    Резервные скриншоты:



    Сравнение:

    http://alt.rutor.org/torrent/43836/

    Звук: http://screenshotcomparison.com/comparison/65633 первая пара скринов - сравнение спектров основного звука MVO (20th Century Fox), вторая пара - английский звук.
    Видео: http://screenshotcomparison.com/comparison/65634
    Исправлены орфографические и синтаксические ошибки в русских субтитрах.

    Залил: avproh
    Размер скачиваемого торрента: 1.46 GB (1565211921 Bytes)

    Изо всех сил / Over the Top (1987) BDRip от New-Team | P, P2, A торрент скачать бесплатно
    загрузка...
    Рейтинг →
     (голосов: 1, оценка 5/5, голосовать можно 1 раз )

    Другие торренты по теме:

  • Изо всех сил / Over the Top (1987) HDRip-AVC | P
  • Изо всех сил / Over the Top (1987) BDRip-AVC от New-Team | P, P2, A
  • Изо всех сил / Over the Top (1987) BDRemux 1080p от New-Team | P, P2, A
  • Изо всех сил / Over the Top (1987) BDRip 1080p от NNNB | P, P2, A скачать через торрент бесплатно
  • Изо всех сил / Over the Top / 1987 / АП (Гаврилов) / BDRip


    • Комментарии (0):

      Информация

      Информация

        Посетители, находящиеся в группе Гости, не могут оставлять комментарии в данной новости.

        ↓ Меню



        ↓ Опрос

        А Вы добавили сайт в закладки?
        Да
        Не


        Top 10 за месяц (Фильмы)