.
Авторизация | Регистрация
Хочешь лучшие торренты? Добавь свой email!
Добавить
» » Облако 9 / Трамплин Надежды / Cloud 9 (2014) WEB-DLRip от Deadmauvlad | D | Disney скачать торрент бесплатно




    Облако 9 / Трамплин Надежды / Cloud 9 (2014) WEB-DLRip от Deadmauvlad | D | Disney скачать торрент бесплатно

    Опубликовал: Админ | Дата: 27-02-2015, 11:10 | Просмотров: 404


    Детально о кино
    Русское название: Облако 9
    Русское название в мировом прокате: Cloud 9
    Создали в: 2014
    Категория жанра: боевик, драма, мелодрама, спорт
    Главный режиссер: Пол Хоэн / Paul Hoen
    Актеры: Дав Кэмерон, Люк Бенуорд, Кирси Клемонс, Майк С. Мэннинг, Диллон Лэйн, Карлон Джеффери, Эндрю Колдуэлл, Патрик Фабиан, Эми Фаррингтон, Джеффри Нордлинг

    Сюжет фильма:
    Очаровательная Кайла — восходящая звезда сноуборда. Она покидает свою команду, чтобы сосредоточиться на тренировках с известным сноубордистом по имени Уилл, который долгое время не принимает участия в соревнованиях. Наставник показывает Кайле совершенно новую технику катания и обещает, что девушка станет одной из лучших спортсменок сезон любимого сериалаа. Отзывчивая Кайла старается помочь Уиллу обрести веру в себя и убеждает его не останавливаться на результатах, достигнутых в прошлом.

    Semple.avi

    Снималось в: США
    Время просмотра: 01:27:28
    Перевод текста: Профессиональный (полное дублирование)Disney

    Файл
    Кодек для видео: XviD, AVI
    Качество фильма: WEB-DLRip (HDRip) | Cloud.9.2014.WEB-DL.1080p.CINEMANIA
    Информация о видео: 720x400 (1.80:1), 23.976 fps, XviD build 73 ~1056 kbps avg, 0.15 bit/pixel
    Информация о звуке: 48 kHz, MPEG Layer 3, 2 ch, ~128.00 kbps avg
    MI
    Общее
    Полное имя : D:Рипы выкладка DeadmauvladРипы готовыеCloud.9.2014.WEB-DLRip.Deadmauvlad.avi
    Формат : AVI
    Формат/Информация : Audio Video Interleave
    Размер файла : 748 Мбайт
    Продолжительность : 1 ч. 27 м.
    Общий поток : 1194 Кбит/сек
    Название фильма : Cloud.9.2014.WEB-DLRip.Deadmauvlad
    Режиссёр : Deadmauvlad
    Жанр : Genre_00
    Формат оригинала/Имя : TV
    Правообладатель : Goldenshra

    Видео
    Идентификатор : 0
    Формат : MPEG-4 Visual
    Профиль формата : Advanced Simple@L5
    Параметр BVOP формата : 1
    Параметр QPel формата : Нет
    Параметр GMC формата : Без точки перехода
    Параметр матрицы формата : Выборочная
    Идентификатор кодека : XVID
    Идентификатор кодека/Подсказка : XviD
    Продолжительность : 1 ч. 27 м.
    Битрейт : 1057 Кбит/сек
    Ширина : 720 пикселей
    Высота : 400 пикселей
    Соотношение сторон : 16:9
    Частота кадров : 23,976 кадра/сек
    Цветовое пространство : YUV
    Субдискретизация насыщенности : 4:2:0
    Битовая глубина : 8 бит
    Тип развёртки : Прогрессивная
    Метод сжатия : С потерями
    Бит/(Пиксели*Кадры) : 0.153
    Размер потока : 661 Мбайт (88%)
    Библиотека кодирования : XviD 73

    Аудио
    Идентификатор : 1
    Формат : MPEG Audio
    Версия формата : Version 1
    Профиль формата : Layer 3
    Режим : Joint stereo
    Расширение режима : MS Stereo
    Идентификатор кодека : 55
    Идентификатор кодека/Подсказка : MP3
    Продолжительность : 1 ч. 27 м.
    Вид битрейта : Постоянный
    Битрейт : 128 Кбит/сек
    Каналы : 2 канала
    Частота : 48,0 КГц
    Метод сжатия : С потерями
    Размер потока : 80,1 Мбайт (11%)
    Выравнивание : Разделение по промежуткам
    Продолжительность промежутка : 42 мс. (1,00 видеокадр)
    Время предзагрузки промежутка : 500 мс.
    Библиотека кодирования : LAME3.99r
    Залил: DJ_V.K_TV
    Размер скачиваемого торрента: 747.52 MB (783836236 Bytes)


    Облако 9 / Трамплин Надежды / Cloud 9 (2014) WEB-DLRip от Deadmauvlad | D | Disney торрент скачать бесплатно
    загрузка...
    Рейтинг →
     (голосов: 1, оценка 4/5, голосовать можно 1 раз )

    Другие торренты по теме:

  • Облако 9 / Cloud 9 (2006) DVDRip
  • Облако 9 / Cloud 9 (2014) WEB-DL 720p от CINEMANIA | D
  • Облако 9 / Cloud 9 (2014) WEB-DLRip
  • Облако 9 / Cloud 9 (2014) Web-DLRip от Torrange | D скачать через торрент бесплатно
  • Трамплин Надежды / Облако 9 / Cloud 9 (2014) WEB-DLRip от Deadmauvlad | D | Disney


    • Комментарии (0):

      Информация

      Информация

        Посетители, находящиеся в группе Гости, не могут оставлять комментарии в данной новости.

        ↓ Меню



        ↓ Опрос

        А Вы добавили сайт в закладки?
        Да
        Не


        Top 10 за месяц (Фильмы)