.
Авторизация | Регистрация
Хочешь лучшие торренты? Добавь свой email!
Добавить
» » Разумное сомнение / Reasonable Doubt (2013) WEB-DL 720p | A, 3xL1 скачать торрент бесплатно




    Разумное сомнение / Reasonable Doubt (2013) WEB-DL 720p | A, 3xL1 скачать торрент бесплатно

    Опубликовал: Админ | Дата: 27-02-2015, 11:10 | Просмотров: 332



    Детально о кино
    Русское название: Разумное сомнение
    Русское название в мировом прокате: Reasonable Doubt
    Создали в: 2013
    Категория жанра: триллер, криминал
    Главный режиссер: Питер Хауит
    Актеры: Доминик Купер, Сэмюэл Л. Джексон, Эрин Карплак, Глория Рубен, Райан Роббинс, Дилан Тейлор, Филипп Бреннинкмейер, Лэйн Стайлз, Джон Б. Лоу, Джессика Бёрлсон

    Сюжет фильма: Доказательство - бремя
    Митч Брокден – вполне благополучный и законопослушный гражданин, он примерный семьянин и, сделав неплохую карьеру, занимает пост окружного прокурора. Но однажды жизнь подвергает его серьезному испытанию – Митч становится виновником дорожного происшествия, и по его вине погибает человек. Но поскольку дело происходит поздним временем в безлюдном месте, Митч решает скрыться с места преступления и просто умолчать о произошедшем, оставив себе муки совести.
    Вскоре за это преступление обвиняют другого человека, а Митч принимает участие в расследовании дела. Приложив все усилия к тому, чтобы оправдать невиновного, Митч добивается успеха, но вскоре понимает, что все гораздо запутаннее, чем казалось на первый взгляд. Но изначально вступив на путь лжи, Митч не может никого посвятить в свою тайну и поэтому вынужден самостоятельно распутывать эту паутину, которая угрожает уже не только благополучию, но и жизни его близких.



    Снималось в: Канада, Германия
    Киностудия: Bavariapool, Paradox Entertainment, South Creek Pictures…
    Время просмотра: 01:31:16
    Перевод текста: Авторское (одноголосое) Михаил Яроцкий Любительское (одноголосое) ViruseProject - Александр Харченко Любительское (одноголосое) datynet Любительское (одноголосое) qwerty

    Файл
    Кодек для видео: h.264
    Качество фильма: WEB-DL 720p
    Информация о видео: AVC, 1280 x 532, ~3085 kbps
    Информация о звуке #1: Русский (Авторское (одноголосое) Михаил Яроцкий: AC-3, 6 ch, 384 kbps
    Информация о звуке #2: Русский (Любительское (одноголосое) ViruseProject - Александр Харченко: AC-3, 2 ch, 192 kbps
    Информация о звуке #3: Русский (Любительское (одноголосое) datynet: AC-3, 2 ch, 192 kbps
    Информация о звуке #4: Русский (Любительское (одноголосое) qwerty: AC-3, 2 ch, 192 kbps
    Информация о звуке #5: Английский: AC-3, 6 ch, 448 kbps
    Субтитры: Русские (notabenoid)

    Семпл

    Скриншоты для ознакомления
    MI
    Общее
    Уникальный идентификатор : 168348648403719580577546155723716462494 (0x7EA6C532C2870C1E037BA147C20E879E)
    Полное имя : G:Разумное сомнение Reasonable Doubt (2014) WEB-DL 720pReasonable.Doubt.2014.WEB-DL.720p.mkv
    Формат : Matroska
    Версия формата : Version 2
    Размер файла : 2,92 Гбайт
    Продолжительность : 1 ч. 31 м.
    Режим общего битрейта : Переменный
    Общий поток : 4584 Кбит/сек
    Программа кодирования : Lavf51.12.1
    Библиотека кодирования : Lavf51.12.1

    Видео
    Идентификатор : 1
    Формат : AVC
    Формат/Информация : Advanced Video Codec
    Профиль формата : Baseline@L3.1
    Параметр CABAC формата : Нет
    Параметр ReFrames формата : 1 кадр
    Параметр GOP формата : M=1, N=12
    Идентификатор кодека : V_MPEG4/ISO/AVC
    Продолжительность : 1 ч. 31 м.
    Вид битрейта : Переменный
    Битрейт : 3085 Кбит/сек
    Максимальный битрейт : 4740 Кбит/сек
    Ширина : 1280 пикселей
    Высота : 532 пикселя
    Соотношение сторон : 2,40:1
    Режим частоты кадров : Постоянный
    Частота кадров : 23,976 кадра/сек
    Частота кадров в оригинале : 24,000 кадра/сек
    Цветовое пространство : YUV
    Субдискретизация насыщенности : 4:2:0
    Битовая глубина : 8 бит
    Тип развёртки : Прогрессивная
    Бит/(Пиксели*Кадры) : 0.189
    Размер потока : 1,97 Гбайт (67%)
    Язык : English
    Default : Да
    Forced : Нет

    Аудио #1
    Идентификатор : 2
    Формат : AC-3
    Формат/Информация : Audio Coding 3
    Расширение режима : CM (complete main)
    Параметр Endianness формата : Big
    Идентификатор кодека : A_AC3
    Продолжительность : 1 ч. 31 м.
    Вид битрейта : Постоянный
    Битрейт : 384 Кбит/сек
    Каналы : 6 каналов
    Расположение каналов : Front: L C R, Side: L R, LFE
    Частота : 48,0 КГц
    Битовая глубина : 16 бит
    Метод сжатия : С потерями
    Размер потока : 251 Мбайт (8%)
    Язык : Russian
    Default : Да
    Forced : Нет

    Аудио #2
    Идентификатор : 4
    Формат : AC-3
    Формат/Информация : Audio Coding 3
    Расширение режима : CM (complete main)
    Параметр Endianness формата : Big
    Идентификатор кодека : A_AC3
    Продолжительность : 1 ч. 31 м.
    Вид битрейта : Постоянный
    Битрейт : 192 Кбит/сек
    Каналы : 2 канала
    Расположение каналов : Front: L R
    Частота : 48,0 КГц
    Битовая глубина : 16 бит
    Метод сжатия : С потерями
    Размер потока : 125 Мбайт (4%)
    Язык : Russian
    Default : Да
    Forced : Нет

    Аудио #3
    Идентификатор : 5
    Формат : AC-3
    Формат/Информация : Audio Coding 3
    Расширение режима : CM (complete main)
    Параметр Endianness формата : Big
    Идентификатор кодека : A_AC3
    Продолжительность : 1 ч. 31 м.
    Вид битрейта : Постоянный
    Битрейт : 192 Кбит/сек
    Каналы : 2 канала
    Расположение каналов : Front: L R
    Частота : 48,0 КГц
    Битовая глубина : 16 бит
    Метод сжатия : С потерями
    Размер потока : 125 Мбайт (4%)
    Язык : Russian
    Default : Да
    Forced : Нет

    Аудио #4
    Идентификатор : 6
    Формат : AC-3
    Формат/Информация : Audio Coding 3
    Расширение режима : CM (complete main)
    Параметр Endianness формата : Big
    Идентификатор кодека : A_AC3
    Продолжительность : 1 ч. 31 м.
    Вид битрейта : Постоянный
    Битрейт : 192 Кбит/сек
    Каналы : 2 канала
    Расположение каналов : Front: L R
    Частота : 48,0 КГц
    Битовая глубина : 16 бит
    Метод сжатия : С потерями
    Размер потока : 125 Мбайт (4%)
    Язык : Russian
    Default : Да
    Forced : Нет

    Аудио #5
    Идентификатор : 7
    Формат : AC-3
    Формат/Информация : Audio Coding 3
    Расширение режима : CM (complete main)
    Параметр Endianness формата : Big
    Идентификатор кодека : A_AC3
    Продолжительность : 1 ч. 31 м.
    Вид битрейта : Постоянный
    Битрейт : 448 Кбит/сек
    Каналы : 6 каналов
    Расположение каналов : Front: L C R, Side: L R, LFE
    Частота : 48,0 КГц
    Битовая глубина : 16 бит
    Метод сжатия : С потерями
    Размер потока : 292 Мбайт (10%)
    Язык : English
    Default : Да
    Forced : Нет

    Текст
    Идентификатор : 3
    Формат : UTF-8
    Идентификатор кодека : S_TEXT/UTF8
    Идентификатор кодека/Информация : UTF-8 Plain Text
    Язык : Russian
    Default : Да
    Forced : Нет

    Размер скачиваемого торрента: 2.92 GB (3138431755 Bytes)

    Разумное сомнение / Reasonable Doubt (2013) WEB-DL 720p | A, 3xL1 торрент скачать бесплатно
    загрузка...
    Рейтинг →
     (голосов: 1, оценка 5/5, голосовать можно 1 раз )

    Другие торренты по теме:

  • Разумное сомнение / Beyond a Reasonable Doubt (2009) BDRip 1080р | D
  • Разумное сомнение / По ту сторону разумного сомнения / Beyond a Reasonable Doubt (2009) НDRip от Scarabey
  • Разумное сомнение / Reasonable Doubt (2014) WEB-DLRip-AVC | L1 скачать через торрент бесплатно
  • Разумное сомнение / Reasonable Doubt (2014) WEB-DLRip | L1 скачать через торрент бесплатно
  • Разумное сомнение / Reasonable Doubt (2014) WEB-DLRip от New-Team скачать через торрент бесплатно
  • Разумное сомнение / Reasonable Doubt (2014) WEB-DLRip от Scarabey
  • Разумное сомнение / Reasonable Doubt (2014) WEB-DL 1080p от CINEMANIA | A, 3xL1 скачать через торрент бесплатно
  • Разумное сомнение / Reasonable Doubt (2014) BDRip 1080p от CINEMANIA | A, 3xL1


    • Комментарии (0):

      Информация

      Информация

        Посетители, находящиеся в группе Гости, не могут оставлять комментарии в данной новости.

        ↓ Меню



        ↓ Опрос

        А Вы добавили сайт в закладки?
        Да
        Не


        Top 10 за месяц (Фильмы)