.
Авторизация | Регистрация
Хочешь лучшие торренты? Добавь свой email!
Добавить
» » Жилец / Le locataire / The Tenant (1976) WEB-DL 720p | P, A скачать торрент бесплатно




    Жилец / Le locataire / The Tenant (1976) WEB-DL 720p | P, A скачать торрент бесплатно

    Опубликовал: Админ | Дата: 27-02-2015, 11:10 | Просмотров: 247



    Детально о кино
    Русское название: Жилец
    Русское название в мировом прокате: Le locataire
    Создали в: 1976
    Категория жанра: триллер, драма, детектив,
    Главный режиссер: Роман Полански
    Актеры: Роман Полански — Трелковский, Изабель Аджани — Стелла, Мелвин Дуглас — месье Зи, Джо Ван Флит — мадам Диоз, Бернар Фрессон — Скоп, Лиля Кедрова — мадам Гадерян, Флоранс Бло — мадам Зи, Шелли Уинтерс — консьержка, Жозиан Баласко — служащая, Мишель Блан — сосед Скопа, Ева Ионеско — Беттина.

    Сюжет фильма:
    Скромный конторский служащий Трелковский решает сменить место проживания и переехать на новое место. Он снимает квартиру в обветшалом здании с недружелюбными соседями. От консьержки он узнает, что предыдущая квартирантка, Симона, покончила с собой, выбросившись из окна. Со временем Трелковский начинает всё больше и больше думать о ней, стараясь узнать как можно больше подробностей. Вскоре он начинает винить соседей в её гибели.




    Снималось в: Франция
    Киностудия: Marianne Productions, Paramount Pictures
    Время просмотра: 02:05:27
    Перевод текста: Профессиональный многоголосый, Авторский одноголосый, Дублированный

    Файл
    Качество фильма: WEB-DL 720p
    Информация о видео: 1278x720 (16:9), 23.976 fps, MPEG-4 AVC, 3925 Kbps
    Информация о звуке:
    Информация о звуке #1: AC3, 192 Kbps, 48.0 KHz, 2 ch (Rus) Многоголосый закадровый, Петербург 5 канал
    Информация о звуке #2: AC3, 192 Kbps, 48.0 KHz, 2 ch (Rus) Авторский одноголосый, A.Алексеев
    Информация о звуке #3: AC3, 192 Kbps, 48.0 KHz, 2 ch (Eng) Дублированный
    Субтитры: Русские, Английские

    Скриншоты для ознакомления




    MediaInfo
    Формат : Matroska
    Версия формата : Version 2
    Размер файла : 4,02 Гбайт
    Продолжительность : 2 ч. 5 м.
    Общий поток : 4592 Кбит/сек
    Дата кодирования : UTC 2014-02-27 22:34:58
    Программа кодирования : mkvmerge v5.4.0 (;Piper;) built on Mar 10 2012 13:34:39
    Библиотека кодирования : libebml v1.2.3 libmatroska v1.3.0

    Видео
    Идентификатор : 1
    Формат : AVC
    Формат/Информация : Advanced Video Codec
    Профиль формата : High@L3.1
    Параметр CABAC формата : Нет
    Параметр ReFrames формата : 2 кадра
    Идентификатор кодека : V_MPEG4/ISO/AVC
    Продолжительность : 2 ч. 5 м.
    Битрейт : 3925 Кбит/сек
    Ширина : 1278 пикселей
    Высота : 720 пикселей
    Соотношение сторон : 16:9
    Режим частоты кадров : Постоянный
    Частота кадров : 23,976 кадра/сек
    Цветовое пространство : YUV
    Субдискретизация насыщенности : 4:2:0
    Битовая глубина : 8 бит
    Тип развёртки : Прогрессивная
    Бит/(Пиксели*Кадры) : 0.178
    Размер потока : 3,44 Гбайт (85%)
    Заголовок : Le locataire / The Tenant / Жилец (1976)
    Язык : English
    Default : Да
    Forced : Нет
    Основные цвета : BT.709
    Характеристики трансфера : BT.709
    Коэффициенты матрицы : BT.709

    Аудио #1
    Идентификатор : 2
    Формат : AC-3
    Формат/Информация : Audio Coding 3
    Расширение режима : CM (complete main)
    Параметр Endianness формата : Big
    Идентификатор кодека : A_AC3
    Продолжительность : 2 ч. 5 м.
    Вид битрейта : Постоянный
    Битрейт : 192 Кбит/сек
    Каналы : 2 канала
    Расположение каналов : Front: L R
    Частота : 48,0 КГц
    Битовая глубина : 16 бит
    Метод сжатия : С потерями
    Размер потока : 172 Мбайт (4%)
    Заголовок : MVO (Russian) Петербург 5 канал
    Язык : Russian
    Default : Да
    Forced : Нет

    Аудио #2
    Идентификатор : 3
    Формат : AC-3
    Формат/Информация : Audio Coding 3
    Расширение режима : CM (complete main)
    Параметр Endianness формата : Big
    Идентификатор кодека : A_AC3
    Продолжительность : 2 ч. 5 м.
    Вид битрейта : Постоянный
    Битрейт : 192 Кбит/сек
    Каналы : 2 канала
    Расположение каналов : Front: L R
    Частота : 48,0 КГц
    Битовая глубина : 16 бит
    Метод сжатия : С потерями
    Размер потока : 172 Мбайт (4%)
    Заголовок : AVO (A.Алексеев)
    Язык : Russian
    Default : Нет
    Forced : Нет

    Аудио #3
    Идентификатор : 4
    Формат : AC-3
    Формат/Информация : Audio Coding 3
    Расширение режима : CM (complete main)
    Параметр Endianness формата : Big
    Идентификатор кодека : A_AC3
    Продолжительность : 2 ч. 5 м.
    Вид битрейта : Постоянный
    Битрейт : 192 Кбит/сек
    Каналы : 2 канала
    Расположение каналов : Front: L R
    Частота : 48,0 КГц
    Битовая глубина : 16 бит
    Метод сжатия : С потерями
    Размер потока : 172 Мбайт (4%)
    Заголовок : DUB (English)
    Язык : English
    Default : Нет
    Forced : Нет

    Текст #1
    Идентификатор : 5
    Формат : ASS
    Идентификатор кодека : S_TEXT/ASS
    Идентификатор кодека/Информация : Advanced Sub Station Alpha
    Метод сжатия : Без потерь
    Заголовок : Rus
    Язык : Russian
    Default : Нет
    Forced : Нет

    Текст #2
    Идентификатор : 6
    Формат : UTF-8
    Идентификатор кодека : S_TEXT/UTF8
    Идентификатор кодека/Информация : UTF-8 Plain Text
    Заголовок : Eng
    Язык : English
    Default : Нет
    Forced : Нет

    Меню
    00:00:00.000 : en:Chapter 1
    00:15:26.000 : en:Chapter 2
    00:29:55.000 : en:Chapter 3
    00:46:41.000 : en:Chapter 4
    00:59:56.000 : en:Chapter 5
    01:15:05.000 : en:Chapter 6
    01:31:11.000 : en:Chapter 7
    01:47:24.000 : en:Chapter 8
    02:00:42.000 : en:Chapter 9



    За релиз спасибо PUNCHLINE79797
    Залил: Soroka1989
    Размер скачиваемого торрента: 4.02 GB (4320712682 Bytes)

    Жилец / Le locataire / The Tenant (1976) WEB-DL 720p | P, A торрент скачать бесплатно
    загрузка...
    Рейтинг →
     (голосов: 1, оценка 4/5, голосовать можно 1 раз )

    Другие торренты по теме:

  • Жилец: история лондонского тумана / The Lodger: A Story of the London Fog (1927) BDRip от HQCLUB
  • Жилец: история лондонского тумана / The Lodger: A Story of the London Fog (1927) BDRip-AVC от ExKinoRay
  • Хвост и АукцЫон - Жилец вершин (1995) APE
  • Хвост и АукцЫон - Жилец вершин (1995) MP3
  • Хвост и АукцЫон - Жилец вершин (1995) FLAC
  • Хвост и АукцЫон - Жилец вершин (1995) MP3


    • Комментарии (0):

      Информация

      Информация

        Посетители, находящиеся в группе Гости, не могут оставлять комментарии в данной новости.

        ↓ Меню



        ↓ Опрос

        А Вы добавили сайт в закладки?
        Да
        Не


        Top 10 за месяц (Фильмы)