.
Авторизация | Регистрация
Хочешь лучшие торренты? Добавь свой email!
Добавить
» » Малютка Чорвен, Боцман и Мозес / Tjorven, Batsman och Moses (1964) BDRip от New-Team | P скачать через торрент бесплатно




    Малютка Чорвен, Боцман и Мозес / Tjorven, Batsman och Moses (1964) BDRip от New-Team | P скачать через торрент бесплатно

    Опубликовал: Админ | Дата: 27-02-2015, 11:10 | Просмотров: 282



    Снималось в: Швеция / Artfilm, Svensk Filmindustri (SF) AB

    Категория жанра: семейный
    Создали в: 1964
    Время просмотра: 01:32:15
    Перевод текста: Профессиональный (многоголосый закадровый) - студия Омикрон
    Субтитры подготовлены: нет
    Оригинальная аудиодорожка: нет

    Главный режиссер: Улле Хелльбум / Olle Hellbom

    Актеры: Торстен Лиллиекрона, Луиз Эдлинд, Бьёрн Сёдебэк, Урбан Страндт, Стивен Линдхольм, Бенгт Эклунд, Эва Стиберг, Лиллемор Остерлунд, Битте Ульвског, Мария Йоханссон...

    Сюжет: История о весёлых приключениях шведских ребятишек, живущих в небольшом рыбацком поселке на острове Сальткрока.

    Автор произведения: Астрид Анна Эмилия Линдгрен (швед. Astrid Anna Emilia Lindgren, урождённая Эрикссон, швед. Ericsson; 14 ноября 1907, Виммербю, Швеция — 28 января 2002, Стокгольм, Швеция) — шведская писательница, автор ряда всемирно известных книг для детей, в том числе Карлсон, который живёт на крыше и тетралогии про Пеппи Длинный чулок. На русском языке её книги стали известны и очень популярны благодаря переводу Лилианны Лунгиной.



    Качество фильма: BDRip / BDRemux 1080p
    Тип видео: AVI

    Информация о видео: 720x400 (16:9), 24.000 fps, XviD ~ 1803 kbps avg, 0.261 bit/pixel
    Информация о звуке: 48 kHz, Dolby AC3, 6 ch, 448 kbps, русский

    Раздача от:
    MediaInfo

    Общее
    Полное имя : Malyutka.Chorven.1964.P.BDRip_New-Team_by_avproh.avi
    Формат : AVI
    Формат/Информация : Audio Video Interleave
    Размер файла : 1,46 Гбайт
    Продолжительность : 1 ч. 32 м.
    Общий поток : 2260 Кбит/сек
    Программа кодирования : VirtualDubModRus 1.5.10.2 (build 2542/release)
    Библиотека кодирования : VirtualDubMod build 2542/release

    Видео
    Идентификатор : 0
    Формат : MPEG-4 Visual
    Профиль формата : Advanced Simple@L5
    Параметр BVOP формата : 1
    Параметр QPel формата : Нет
    Параметр GMC формата : Без точки перехода
    Параметр матрицы формата : Выборочная
    Идентификатор кодека : XVID
    Идентификатор кодека/Подсказка : XviD
    Продолжительность : 1 ч. 32 м.
    Битрейт : 1803 Кбит/сек
    Ширина : 720 пикселей
    Высота : 400 пикселей
    Соотношение сторон : 16:9
    Частота кадров : 24,000 кадра/сек
    Цветовое пространство : YUV
    Субдискретизация насыщенности : 4:2:0
    Битовая глубина : 8 бит
    Тип развёртки : Прогрессивная
    Метод сжатия : С потерями
    Бит/(Пиксели*Кадры) : 0.261
    Размер потока : 1,16 Гбайт (80%)
    Библиотека кодирования : XviD 73

    Аудио
    Идентификатор : 1
    Формат : AC-3
    Формат/Информация : Audio Coding 3
    Расширение режима : CM (complete main)
    Параметр Endianness формата : Big
    Идентификатор кодека : 2000
    Продолжительность : 1 ч. 32 м.
    Вид битрейта : Постоянный
    Битрейт : 448 Кбит/сек
    Каналы : 6 каналов
    Расположение каналов : Front: L C R, Side: L R, LFE
    Частота : 48,0 КГц
    Битовая глубина : 16 бит
    Метод сжатия : С потерями
    Размер потока : 296 Мбайт (20%)
    Выравнивание : Разделение по промежуткам
    Продолжительность промежутка : 42 мс. (1,00 видеокадр)
    Время предзагрузки промежутка : 500 мс.

    Скриншоты для ознакомления:



    Резервные скриншоты:



    Сравнение с релизом HQCLUB:

    http://rutor.org/torrent/340103

    Видео: http://screenshotcomparison.com/comparison/65250
    Аудио: http://screenshotcomparison.com/comparison/65251

    Залил: avproh
    Размер скачиваемого торрента: 1.46 GB (1563832320 Bytes)

    Малютка Чорвен, Боцман и Мозес / Tjorven, Batsman och Moses (1964) BDRip от New-Team | P скачать через торрент бесплатно
    загрузка...
    Рейтинг →
     (голосов: 1, оценка 3/5, голосовать можно 1 раз )

    Другие торренты по теме:

  • Малютка Чорвен, Боцман и Мозес / Tjorven, Batsman, and Moses / Tjorven, Btsman och Moses (1964) BDRip от HQCLUB
  • Малютка Чорвен, Боцман и Мозес / Tjorven, Batsman och Moses (1964) BDRip-AVC от New-Team | P скачать через торрент бесплатно
  • Малютка Чорвен, Боцман и Мозес / Tjorven, Batsman och Moses (1964) DVDRip-AVC от New-Team | P


    • Комментарии (0):

      Информация

      Информация

        Посетители, находящиеся в группе Гости, не могут оставлять комментарии в данной новости.

        ↓ Меню



        ↓ Опрос

        А Вы добавили сайт в закладки?
        Да
        Не


        Top 10 за месяц (Фильмы)