.
Авторизация | Регистрация
Хочешь лучшие торренты? Добавь свой email!
Добавить
» » Мизерере / La marque des anges - Miserere (2013) HDRip-AVC | P скачать через торрент бесплатно




    Мизерере / La marque des anges - Miserere (2013) HDRip-AVC | P скачать через торрент бесплатно

    Опубликовал: Админ | Дата: 27-02-2015, 11:10 | Просмотров: 260



    Детально о кино
    Русское название: Мизерере
    Русское название в мировом прокате: La marque des anges - Miserere
    Создали в: 2013
    Категория жанра: триллер
    Главный режиссер: Сильвен Уайт
    Актеры: Жерар Депардье, Джои Старр, Рюдигер Фоглер, Элена Ногуэрра, Марта Келлер, Тьерри Лермитт, Кевин Меффр, Иван Франек, Жерар Шеллу, Джеймс Жерар

    Сюжет фильма:
    В армянском соборе Святого Иоанна Крестителя в Париже убит чилийский беженец Вильгельм Гетц, регент хора мальчиков и органист. Касдан, офицер полиции в отставке и прихожанин собора, немедленно начинает собственное неофициальное расследование. К нему присоединяется Волокин из отдела по защите прав несовершеннолетних. Оказывается, в прошлом исчезло несколько мальчиков из хоров, которыми руководил Гетц. За первым преступлением следуют еще более кровавые убийства. Между полным опасностей расследованием, в которое пускаются герои, и старинным хоралом Мизерере существует таинственная связь…



    Снималось в: Франция, Бельгия
    Киностудия: Brio Films, TF1 Films Production…
    Время просмотра: 01:45:50
    Перевод текста: Профессиональный (многоголосый) Онлайн кинотеатр

    Файл
    Кодек для видео: h.264
    Качество фильма: HDRip-AVC
    Информация о видео: AVC, 1024 x 432, ~1857 kbps
    Информация о звуке #1: Русский: AC-3, 2 ch, 224 kbps
    Информация о звуке #2: Французский: AC-3, 6 ch, 320 kbps

    Семпл

    Скриншоты для ознакомления
    MI
    Общее
    Уникальный идентификатор : 168348648403719580577546155723716462494 (0x7EA6C532C2870C1E037BA147C20E879E)
    Полное имя : G:Мизерере La marque des anges - Miserere (2013) HDRip-AVCMiserere.2013.P.HDRip-AVC..mkv
    Формат : Matroska
    Версия формата : Version 2
    Размер файла : 1,81 Гбайт
    Продолжительность : 1 ч. 45 м.
    Режим общего битрейта : Переменный
    Общий поток : 2450 Кбит/сек
    Программа кодирования : Lavf51.12.1
    Библиотека кодирования : Lavf51.12.1

    Видео
    Идентификатор : 1
    Формат : AVC
    Формат/Информация : Advanced Video Codec
    Профиль формата : Baseline@L3.1
    Параметр CABAC формата : Нет
    Параметр ReFrames формата : 1 кадр
    Параметр GOP формата : M=1, N=12
    Идентификатор кодека : V_MPEG4/ISO/AVC
    Продолжительность : 1 ч. 45 м.
    Вид битрейта : Переменный
    Битрейт : 1857 Кбит/сек
    Максимальный битрейт : 2850 Кбит/сек
    Ширина : 1024 пикселя
    Высота : 432 пикселя
    Соотношение сторон : 2,40:1
    Режим частоты кадров : Постоянный
    Частота кадров : 23,976 кадра/сек
    Частота кадров в оригинале : 24,000 кадра/сек
    Цветовое пространство : YUV
    Субдискретизация насыщенности : 4:2:0
    Битовая глубина : 8 бит
    Тип развёртки : Прогрессивная
    Бит/(Пиксели*Кадры) : 0.175
    Размер потока : 1,37 Гбайт (76%)
    Default : Да
    Forced : Нет

    Аудио #1
    Идентификатор : 2
    Формат : AC-3
    Формат/Информация : Audio Coding 3
    Расширение режима : CM (complete main)
    Параметр Endianness формата : Big
    Идентификатор кодека : A_AC3
    Продолжительность : 1 ч. 45 м.
    Вид битрейта : Постоянный
    Битрейт : 224 Кбит/сек
    Каналы : 2 канала
    Расположение каналов : Front: L R
    Частота : 48,0 КГц
    Битовая глубина : 16 бит
    Метод сжатия : С потерями
    Размер потока : 170 Мбайт (9%)
    Default : Да
    Forced : Нет

    Аудио #2
    Идентификатор : 3
    Формат : AC-3
    Формат/Информация : Audio Coding 3
    Расширение режима : CM (complete main)
    Параметр Endianness формата : Big
    Идентификатор кодека : A_AC3
    Продолжительность : 1 ч. 45 м.
    Вид битрейта : Постоянный
    Битрейт : 320 Кбит/сек
    Каналы : 6 каналов
    Расположение каналов : Front: L C R, Side: L R, LFE
    Частота : 48,0 КГц
    Битовая глубина : 16 бит
    Метод сжатия : С потерями
    Размер потока : 242 Мбайт (13%)
    Default : Да
    Forced : Нет

    Размер скачиваемого торрента: 1.81 GB (1944540893 Bytes)

    Мизерере / La marque des anges - Miserere (2013) HDRip-AVC | P скачать через торрент бесплатно
    загрузка...
    Рейтинг →
     (голосов: 1, оценка 5/5, голосовать можно 1 раз )

    Другие торренты по теме:

  • Мизерере / La marque des anges - Miserere (2013) BDRip 720p | L1 скачать через торрент бесплатно
  • Мизерере / La marque des anges - Miserere (2013) HDRip | L1 скачать через торрент бесплатно
  • Мизерере / La marque des anges - Miserere (2013) HDRip | Чистый звук скачать через торрент бесплатно
  • Мизерере скачать через торрент бесплатно
  • Жан-Кристоф Гранже - Мизерере (2014) (2012) MP3


    • Комментарии (0):

      Информация

      Информация

        Посетители, находящиеся в группе Гости, не могут оставлять комментарии в данной новости.

        ↓ Меню



        ↓ Опрос

        А Вы добавили сайт в закладки?
        Да
        Не


        Top 10 за месяц (Фильмы)