.
Авторизация | Регистрация
Хочешь лучшие торренты? Добавь свой email!
Добавить
» » Разумное сомнение / Reasonable Doubt (2014) WEB-DL 1080p от CINEMANIA | A, 3xL1 скачать через торрент бесплатно




    Разумное сомнение / Reasonable Doubt (2014) WEB-DL 1080p от CINEMANIA | A, 3xL1 скачать через торрент бесплатно

    Опубликовал: Админ | Дата: 27-02-2015, 11:10 | Просмотров: 317



    Детально о кино
    Русское название: Разумное сомнение
    Оригинальное название: Reasonable Doubt
    Создали в: 2014
    Категория жанра: триллер, криминал
    Главный режиссер: Питер Хауит
    Актеры: Доминик Купер, Сэмюэл Л. Джексон, Эрин Карплак, Глория Рубен, Райан Роббинс, Дилан Тейлор, Филипп Бреннинкмейер, Лэйн Стайлз, Джон Б. Лоу, Джессика Бёрлсон

    Сюжет фильма:
    Митч Брокден – вполне благополучный и законопослушный гражданин, он примерный семьянин и, сделав неплохую карьеру, занимает пост окружного прокурора. Но однажды жизнь подвергает его серьезному испытанию – Митч становится виновником дорожного происшествия, и по его вине погибает человек. Но поскольку дело происходит поздним временем в безлюдном месте, Митч решает скрыться с места преступления и просто умолчать о произошедшем, оставив себе муки совести.

    Вскоре за это преступление обвиняют другого человека, а Митч принимает участие в расследовании дела. Приложив все усилия к тому, чтобы оправдать невиновного, Митч добивается успеха, но вскоре понимает, что все гораздо запутаннее, чем казалось на первый взгляд. Но изначально вступив на путь лжи, Митч не может никого посвятить в свою тайну и поэтому вынужден самостоятельно распутывать эту паутину, которая угрожает уже не только благополучию, но и жизни его близких.



    Снималось в: Германия, Канада
    Время просмотра: 01:31:16
    Тип перевода:
    Авторское (одноголосое) Михаил Яроцкий
    Любительское (одноголосое) ViruseProject - Александр Харченко
    Любительское (одноголосое) datynet
    Любительское (одноголосое) qwerty

    Файл
    Тип видео: MKV
    Качество фильма: WEB-DL 1080p PHD
    Информация о видео: 3708 kb/s, 1908x788
    Информация о звуке:
    Russian: Михаил Яроцкий: AC3, 384 kb/s (6 ch)
    Russian: ViruseProject
    Russian: datynet
    Russian: qwerty: AC3, 192 kb/s (2 ch)
    English: AC3, 384 kb/s (6 ch)
    Субтитры: Russian notabenoid, English
    Дополнительно: Сохранены оригинальные чаптеры как на Blu-Ray
    Размер скачиваемого торрента: 3.29 Gb
    Скачать: Сэмпл

    Релиз группы:




    NFO
    Общее
    Reasonable.Doubt.2014.WEB-DL.1080p.CINEMANIA.mkv
    Формат : Matroska
    Версия формата : Version 4 / Version 2
    Размер файла : 3,29 Гбайт
    Продолжительность : 1 ч. 31 м.
    Общий поток : 5154 Кбит/сек
    Название фильма : Release Group CINEMANIA
    Дата кодирования : UTC 2014-03-04 06:56:45
    Программа кодирования : mkvmerge v6.7.0 (;Back to the Ground;) 64bit built on Jan 8 2014 15:10:52
    Библиотека кодирования : libebml v1.3.0 libmatroska v1.4.1

    Видео
    Идентификатор : 1
    Формат : AVC
    Формат/Информация : Advanced Video Codec
    Профиль формата : High@L4.0
    Параметр CABAC формата : Да
    Параметр ReFrames формата : 5 кадров
    Идентификатор кодека : V_MPEG4/ISO/AVC
    Продолжительность : 1 ч. 31 м.
    Битрейт : 3708 Кбит/сек
    Ширина : 1908 пикселей
    Высота : 788 пикселей
    Соотношение сторон : 2,40:1
    Режим частоты кадров : Постоянный
    Частота кадров : 23,976 кадра/сек
    Цветовое пространство : YUV
    Субдискретизация насыщенности : 4:2:0
    Битовая глубина : 8 бит
    Тип развёртки : Прогрессивная
    Бит/(Пиксели*Кадры) : 0.103
    Размер потока : 2,36 Гбайт (72%)
    Заголовок : Release Group CINEMANIA
    Язык : English
    Default : Да
    Forced : Нет
    Основные цвета : BT.709
    Характеристики трансфера : BT.709
    Коэффициенты матрицы : BT.709

    Аудио #1
    Идентификатор : 2
    Формат : AC-3
    Формат/Информация : Audio Coding 3
    Расширение режима : CM (complete main)
    Параметр Endianness формата : Big
    Идентификатор кодека : A_AC3
    Продолжительность : 1 ч. 31 м.
    Вид битрейта : Постоянный
    Битрейт : 384 Кбит/сек
    Каналы : 6 каналов
    Расположение каналов : Front: L C R, Side: L R, LFE
    Частота : 48,0 КГц
    Битовая глубина : 16 бит
    Метод сжатия : С потерями
    Размер потока : 251 Мбайт (7%)
    Заголовок : Михаил Яроцкий
    Язык : Russian
    Default : Да
    Forced : Да

    Аудио #2
    Идентификатор : 3
    Формат : AC-3
    Формат/Информация : Audio Coding 3
    Расширение режима : CM (complete main)
    Параметр Endianness формата : Big
    Идентификатор кодека : A_AC3
    Продолжительность : 1 ч. 31 м.
    Вид битрейта : Постоянный
    Битрейт : 192 Кбит/сек
    Каналы : 2 канала
    Расположение каналов : Front: L R
    Частота : 48,0 КГц
    Битовая глубина : 16 бит
    Метод сжатия : С потерями
    Размер потока : 125 Мбайт (4%)
    Заголовок : ViruseProject - Александр Харченко
    Язык : Russian
    Default : Нет
    Forced : Нет

    Аудио #3
    Идентификатор : 4
    Формат : AC-3
    Формат/Информация : Audio Coding 3
    Расширение режима : CM (complete main)
    Параметр Endianness формата : Big
    Идентификатор кодека : A_AC3
    Продолжительность : 1 ч. 31 м.
    Вид битрейта : Постоянный
    Битрейт : 192 Кбит/сек
    Каналы : 2 канала
    Расположение каналов : Front: L R
    Частота : 44,1 КГц
    Битовая глубина : 16 бит
    Метод сжатия : С потерями
    Размер потока : 125 Мбайт (4%)
    Заголовок : datynet
    Язык : Russian
    Default : Нет
    Forced : Нет

    Аудио #4
    Идентификатор : 5
    Формат : AC-3
    Формат/Информация : Audio Coding 3
    Расширение режима : CM (complete main)
    Параметр Endianness формата : Big
    Идентификатор кодека : A_AC3
    Продолжительность : 1 ч. 31 м.
    Вид битрейта : Постоянный
    Битрейт : 192 Кбит/сек
    Каналы : 2 канала
    Расположение каналов : Front: L R
    Частота : 48,0 КГц
    Битовая глубина : 16 бит
    Метод сжатия : С потерями
    Размер потока : 125 Мбайт (4%)
    Заголовок : qwerty
    Язык : Russian
    Default : Нет
    Forced : Нет

    Аудио #5
    Идентификатор : 6
    Формат : AC-3
    Формат/Информация : Audio Coding 3
    Расширение режима : CM (complete main)
    Параметр Endianness формата : Big
    Идентификатор кодека : A_AC3
    Продолжительность : 1 ч. 31 м.
    Вид битрейта : Постоянный
    Битрейт : 384 Кбит/сек
    Каналы : 6 каналов
    Расположение каналов : Front: L C R, Side: L R, LFE
    Частота : 48,0 КГц
    Битовая глубина : 16 бит
    Метод сжатия : С потерями
    Размер потока : 251 Мбайт (7%)
    Язык : English
    Default : Нет
    Forced : Нет

    Текст #1
    Идентификатор : 7
    Формат : UTF-8
    Идентификатор кодека : S_TEXT/UTF8
    Идентификатор кодека/Информация : UTF-8 Plain Text
    Заголовок : notabenoid
    Язык : Russian
    Default : Нет
    Forced : Нет

    Текст #2
    Идентификатор : 8
    Формат : UTF-8
    Идентификатор кодека : S_TEXT/UTF8
    Идентификатор кодека/Информация : UTF-8 Plain Text
    Язык : English
    Default : Нет
    Forced : Нет

    Меню
    00:00:00.000 : en:Chapter 1
    00:02:44.000 : en:Chapter 2
    00:12:43.000 : en:Chapter 3
    00:21:38.000 : en:Chapter 4
    00:29:52.000 : en:Chapter 5
    00:37:34.000 : en:Chapter 6
    00:44:29.000 : en:Chapter 7
    00:51:39.000 : en:Chapter 8
    01:00:00.000 : en:Chapter 9
    01:07:04.000 : en:Chapter 10
    01:17:59.000 : en:Chapter 11
    01:20:03.000 : en:Chapter 12

    Залил: DGEKIGAN
    Размер скачиваемого торрента: 3.29 GB (3528573664 Bytes)

    Разумное сомнение / Reasonable Doubt (2014) WEB-DL 1080p от CINEMANIA | A, 3xL1 скачать через торрент бесплатно
    загрузка...
    Рейтинг →
     (голосов: 1, оценка 5/5, голосовать можно 1 раз )

    Другие торренты по теме:

  • Разумное сомнение / Beyond a Reasonable Doubt (2009) BDRip 1080р | D
  • Разумное сомнение / По ту сторону разумного сомнения / Beyond a Reasonable Doubt (2009) НDRip от Scarabey
  • Разумное сомнение / Reasonable Doubt (2014) WEB-DLRip-AVC | L1 скачать через торрент бесплатно
  • Разумное сомнение / Reasonable Doubt (2014) WEB-DLRip | L1 скачать через торрент бесплатно
  • Разумное сомнение / Reasonable Doubt (2014) WEB-DLRip от New-Team скачать через торрент бесплатно
  • Разумное сомнение / Reasonable Doubt (2014) WEB-DLRip от Scarabey
  • Разумное сомнение / Reasonable Doubt (2014) BDRip 1080p от CINEMANIA | A, 3xL1
  • Разумное сомнение / Reasonable Doubt (2014) BDRip 720p от CINEMANIA | A, 3xL1


    • Комментарии (0):

      Информация

      Информация

        Посетители, находящиеся в группе Гости, не могут оставлять комментарии в данной новости.

        ↓ Меню



        ↓ Опрос

        А Вы добавили сайт в закладки?
        Да
        Не


        Top 10 за месяц (Фильмы)