.
Авторизация | Регистрация
Хочешь лучшие торренты? Добавь свой email!
Добавить
» » Гарри Поттер и философский камень / Harry Potter and the Sorcerers Stone (2001) HDRip-AVC | iPhone | D скачать через торрент бесплатно




    Гарри Поттер и философский камень / Harry Potter and the Sorcerers Stone (2001) HDRip-AVC | iPhone | D скачать через торрент бесплатно

    Опубликовал: Админ | Дата: 27-02-2015, 11:10 | Просмотров: 256



    Гарри Поттер и философский камень / Harry Potter and the Sorcerer;s Stone (2001) HDRip-AVC | iPhone | D

    Русское название: Гарри Поттер и философский камень
    Русское название в мировом прокате: Harry Potter and the Sorcerer;s Stone
    Создали в: 2001
    Категория жанра: фэнтези, приключения, семейный
    Главный режиссер: Крис Коламбус
    Актеры: Дэниэл Рэдклифф, Руперт Гринт, Эмма Уотсон, Ричард Харрис, Алан Рикман, Мэгги Смит, Робби Колтрейн, Том Фелтон, Мэттью Льюис, Иэн Харт

    Сюжет фильма:
    Жизнь десятилетнего Гарри Поттера нельзя назвать сладкой: его родители умерли, едва ему исполнился год, а от дяди и тётки, взявших сироту на воспитание, достаются лишь тычки да подзатыльники. Но в одиннадцатый день рождения Гарри всё меняется. Странный гость, неожиданно появившийся на пороге, приносит письмо, из которого мальчик узнаёт, что на самом деле он чистокровный волшебник и принят в Хогвартс — школу магии. А уже через пару недель Гарри будет мчаться в поезде Хогвартс-экспресс навстречу новой жизни, где его ждут невероятные приключения, верные друзья и самое главное — ключ к разгадке тайны смерти его родителей.




    Снималось в: Великобритания, США
    Киностудия: Warner Bros. Pictures, 1492 Pictures, Heyday Films
    Время просмотра: 02:32:22
    Перевод текста: Русский дублированный

    Файл
    Кодек для видео: H.264
    Качество фильма: HDRip-AVC 480p iPhone
    Информация о видео: 640x354@851x354 (2.40:1) at 23.976 fps, AVC at 1600 kbps
    Информация о звуке:
    1: 48 kHz, AAC 2.0, 180 kbps - Русский дублированный (Blu-ray CEE)
    2: 48 kHz, AAC 2.0, 180 kbps - Английский
    Субтитры: Русские, Английские

    Media Info

    General
    Complete name : C:CREATE480outHarry Potter and the Sorcerers Stone.2001 (SD).m4v
    Format : MPEG-4
    Codec ID : M4V
    File size : 2.07 GiB
    Duration : 2h 32mn
    Overall bit rate mode : Variable
    Overall bit rate : 1 944 Kbps
    Movie name : Гарри Поттер и философский камень
    Performer : Крис Коламбус
    Genre : Kids Family
    Recorded date : UTC 2001-11-04 08:00:00
    Encoded date : UTC 2014-02-11 17:34:22
    Tagged date : UTC 2014-02-26 13:54:07
    Copyright : © Harry Potter And The Philosopher;s Stone 2006 Warner Bros. Entertainment Inc. Harry Potter Publishing Rights J.K. Rowling. Harry Potter characters, names and related indicia are trademarks of and Warner Bros. Entertainment Inc. All rights reserved.
    Cover : Yes
    Comment : Путешествие в твою мечту
    sonm : Harry Potter and the Philosopher;s Stone
    desc : Обычный лондонский мальчик Гарри Поттер на 11-м году жизни узнает, что он - осиротевший сын двух могущественных волшебников, и сам обладает магической силой.
    ldes : Обычный лондонский мальчик Гарри Поттер на 11-м году жизни узнает, что он — осиротевший сын двух могущественных волшебников, и сам обладает магической силой. В Хогвартской школе чародейства и волшебства Гарри попадает в водоворот невероятных приключений. Он изучает квиддич — спорт высшего пилотажа, играет в захватывающую игру живыми шахматными фигурами, встречается с Темным Волшебником, который хочет его уничтожить.
    stik : 9
    rtng : 0
    cnID : 271469503
    xid : Apple:vendor_id:2001-689
    iTunEXTC : mpaa|PG-13|300|

    Video #1
    ID : 1
    Format : AVC
    Format/Info : Advanced Video Codec
    Format profile : Baseline@L3.0
    Format settings, CABAC : No
    Format settings, ReFrames : 2 frames
    Codec ID : avc1
    Codec ID/Info : Advanced Video Coding
    Duration : 2h 32mn
    Bit rate : 1 600 Kbps
    Maximum bit rate : 6 879 Kbps
    Width : 640 pixels
    Height : 354 pixels
    Display aspect ratio : 2.40:1
    Frame rate mode : Constant
    Frame rate : 23.976 fps
    Color space : YUV
    Chroma subsampling : 4:2:0
    Bit depth : 8 bits
    Scan type : Progressive
    Bits/(Pixel*Frame) : 0.295
    Stream size : 1.70 GiB (82%)
    Title : Harry Potter and the Sorcerer_s Stone _2001_
    Writing library : x264 core 140 r2377 40 929f149 tMod 8-bit@4:2:0 X86_64
    Encoding settings : cabac=0 / ref=2 / deblock=1:-2:-2 / analyse=0x1:0x131 / me=umh / subme=7 / psy=1 / fade_compensate=1.00 / psy_rd=1.05:0.15 / mixed_ref=1 / me_range=32 / chroma_me=1 / trellis=2 / 8x8dct=0 / cqm=0 / deadzone=21,11 / fast_pskip=0 / chroma_qp_offset=-3 / threads=12 / lookahead_threads=2 / sliced_threads=0 / nr=0 / decimate=0 / interlaced=0 / bluray_compat=0 / constrained_intra=0 / fgo=0 / bframes=0 / weightp=0 / keyint=250 / keyint_min=23 / scenecut=40 / intra_refresh=0 / rc_lookahead=120 / rc=2pass / mbtree=1 / bitrate=1600 / ratetol=1.0 / qcomp=0.60 / qpmin=0:0:0 / qpmax=69:69:69 / qpstep=4 / cplxblur=20.0 / qblur=0.5 / vbv_maxrate=5000 / vbv_bufsize=5000 / nal_hrd=none / filler=0 / ip_ratio=1.30 / aq=1:0.90 / aq-sensitivity=10.00 / aq-factor=1.00:1.00:1.00 / aq2=0 / aq3=1:0.50:0.50:0.50:0.50:0.50:0.50:0.50:0.50 / aq3-sensitivity=10.00 / aq3-factor=1.00:1.00:1.00:1.00:1.00:1.00 / aq3-boundary=205:56:9
    Language : English
    Encoded date : UTC 2014-02-11 17:34:22
    Tagged date : UTC 2014-02-11 17:35:02
    Matrix coefficients : BT.709

    Video #2
    ID : 7
    Format : JPEG
    Codec ID : jpeg
    Duration : 2h 32mn
    Bit rate mode : Variable
    Bit rate : 1 195 bps
    Width : 640 pixels
    Height : 266 pixels
    Display aspect ratio : 2.40:1
    Frame rate mode : Variable
    Frame rate : 0.004 fps
    Minimum frame rate : 0.002 fps
    Maximum frame rate : 2.347 fps
    Color space : YUV
    Chroma subsampling : 4:2:0
    Bit depth : 8 bits
    Compression mode : Lossy
    Bits/(Pixel*Frame) : 1.755
    Stream size : 1.28 MiB (0%)
    Language : English
    Encoded date : UTC 2014-02-26 13:54:03
    Tagged date : UTC 2014-02-26 13:54:04

    Audio #1
    ID : 2
    Format : AAC
    Format/Info : Advanced Audio Codec
    Format profile : LC
    Codec ID : 40
    Duration : 2h 32mn
    Bit rate mode : Variable
    Bit rate : 168 Kbps
    Maximum bit rate : 254 Kbps
    Channel(s) : 2 channels
    Channel positions : Front: L R
    Sampling rate : 48.0 KHz
    Compression mode : Lossy
    Stream size : 183 MiB (9%)
    Title : Russian _BD CEE_
    Language : Russian
    Encoded date : UTC 2014-02-11 17:25:41
    Tagged date : UTC 2014-02-11 17:35:02

    Audio #2
    ID : 3
    Format : AAC
    Format/Info : Advanced Audio Codec
    Format profile : LC
    Codec ID : 40
    Duration : 2h 32mn
    Bit rate mode : Variable
    Bit rate : 174 Kbps
    Maximum bit rate : 261 Kbps
    Channel(s) : 2 channels
    Channel positions : Front: L R
    Sampling rate : 48.0 KHz
    Compression mode : Lossy
    Stream size : 190 MiB (9%)
    Title : Original
    Language : English
    Encoded date : UTC 2014-02-11 17:31:06
    Tagged date : UTC 2014-02-11 17:35:02

    Text #1
    ID : 4
    Format : Timed Text
    Muxing mode : sbtl
    Codec ID : tx3g
    Duration : 1h 20mn
    Bit rate mode : Variable
    Bit rate : 1 bps
    Stream size : 359 Bytes (0%)
    Title : Subtitle Russian
    Language : Russian
    Encoded date : UTC 2014-02-11 17:35:02
    Tagged date : UTC 2014-02-11 17:35:02

    Text #2
    ID : 5
    Format : Timed Text
    Muxing mode : sbtl
    Codec ID : tx3g
    Duration : 2h 23mn
    Bit rate mode : Variable
    Bit rate : 47 bps
    Stream size : 49.8 KiB (0%)
    Title : Subtitle English
    Language : English
    Encoded date : UTC 2014-02-11 17:35:02
    Tagged date : UTC 2014-02-11 17:35:02

    Menu
    ID : 6
    Codec ID : text
    Duration : 2h 32mn
    Language : English
    Encoded date : UTC 2014-02-11 17:36:29
    Tagged date : UTC 2014-02-11 17:36:29
    Bit rate mode : CBR

    iTunes Meta Tags

    Sort Name: Harry Potter and the Philosopher;s Stone
    XID: Apple:vendor_id:2001-689
    contentID: 271469503
    Copyright: © Harry Potter And The Philosopher;s Stone 2006 Warner Bros. Entertainment Inc. Harry Potter Publishing Rights J.K. Rowling. Harry Potter characters, names and related indicia are trademarks of and Warner Bros. Entertainment Inc. All rights reserved.
    Screenwriters: Стивен Кловз, Дж.К. Роулинг
    Producers: Дэвид Хейман, Тодд Арноу, Майкл Барнатан
    Director: Chris Columbus
    Cast: Дэниэл Рэдклифф, Руперт Гринт, Эмма Уотсон, Ричард Харрис, Алан Рикман, Мэгги Смит, Робби Колтрейн, Том Фелтон, Мэттью Льюис, Иэн Хар
    Studio: Warner Bros. Pictures, 1492 Pictures, Heyday Films
    Rating: 4
    Long Deion: Обычный лондонский мальчик Гарри Поттер на 11-м году жизни узнает, что он — осиротевший сын двух могущественных волшебников, и сам обладает магической силой. В Хогвартской школе чародейства и волшебства Гарри попадает в водоворот невероятных приключений. Он изучает квиддич — спорт высшего пилотажа, играет в захватывающую игру живыми шахматными фигурами, встречается с Темным Волшебником, который хочет его уничтожить.
    Deion: Обычный лондонский мальчик Гарри Поттер на 11-м году жизни узнает, что он - осиротевший сын двух могущественных волшебников, и сам обладает магической силой.
    Release Date: 2001-11-04T08:00:00Z
    Genre: Kids Family
    Comments: Путешествие в твою мечту
    Artist: Крис Коламбус
    Name: Гарри Поттер и философский камень
    x264 Log

    x264 info: frame I:4120 Avg QP:19.14 size: 24796
    x264 info: frame P:215056 Avg QP:20.56 size: 8001
    x264 info: mb I I16..4: 32.0% 0.0% 68.0%
    x264 info: mb P I16..4: 1.7% 0.0% 2.2% P16..4: 52.3% 17.5% 9.4% 1.4% 0.7% skip:14.8%
    x264 info: coded y,uvDC,uvAC intra: 56.1% 68.7% 33.3% inter: 40.3% 35.9% 11.7%
    x264 info: i16 v,h,dc,p: 51% 12% 10% 26%
    x264 info: i4 v,h,dc,ddl,ddr,vr,hd,vl,hu: 36% 11% 16% 6% 7% 8% 5% 7% 4%
    x264 info: i8c dc,h,v,p: 54% 15% 24% 7%
    x264 info: ref P L0: 76.2% 23.8%
    x264 info: kb/s:1595.28




    Залил: gekka
    Размер скачиваемого торрента: 2.07 GB (2221127799 Bytes)

    Гарри Поттер и философский камень / Harry Potter and the Sorcerers Stone (2001) HDRip-AVC | iPhone | D скачать через торрент бесплатно
    загрузка...
    Рейтинг →
     (голосов: 1, оценка 4/5, голосовать можно 1 раз )

    Другие торренты по теме:

  • Гарри Поттер: Антология / Harry Potter: Antology (2001-2011) BDRip 720p от R.G. GoldenShara
  • Гарри Поттер и Белое Золото II / Harry Potter and the Deathly Hallows: Part 2 (2011 / 2012) BDRip
  • Роулинг Джоан Кэтлин - Гарри Поттер. Книги 1-7 (2006-2011) MP3
  • Роулинг Джоан Кэтлин - Гарри Поттер. Книги 1-6 (2012) MP3
  • Гарри Поттер и Принц-полукровка / Harry Potter and the Half-Blood Prince (2009) HDRip от Scarabey | D
  • Гарри Поттер и орден Феникса / Harry Potter and the Order of the Phoenix (2007) HDRip от Scarabey | D
  • Гарри Поттер и кубок огня / Harry Potter and the Goblet of Fire (2005) HDRip от Scarabey | D
  • Гарри Поттер и узник Азкабана / Harry Potter and the Prisoner of Azkaban (2004) HDRip от Scarabey | D


    • Комментарии (0):

      Информация

      Информация

        Посетители, находящиеся в группе Гости, не могут оставлять комментарии в данной новости.

        ↓ Меню



        ↓ Опрос

        А Вы добавили сайт в закладки?
        Да
        Не


        Top 10 за месяц (Фильмы)