.
Авторизация | Регистрация
Хочешь лучшие торренты? Добавь свой email!
Добавить
» » Гарри Поттер и Тайная комната / Harry Potter and the Chamber of Secrets (2002) HDRip-AVC | iPhone | D скачать через торрент бесплатно




    Гарри Поттер и Тайная комната / Harry Potter and the Chamber of Secrets (2002) HDRip-AVC | iPhone | D скачать через торрент бесплатно

    Опубликовал: Админ | Дата: 27-02-2015, 11:10 | Просмотров: 175



    Гарри Поттер и Тайная комната / Harry Potter and the Chamber of Secrets (2002) HDRip-AVC | iPhone | D

    Русское название: Гарри Поттер и Тайная комната
    Русское название в мировом прокате: Harry Potter and the Chamber of Secrets
    Создали в: 2002
    Категория жанра: фэнтези, приключения, семейный
    Главный режиссер: Крис Коламбус
    Актеры: Дэниэл Рэдклифф, Руперт Гринт, Эмма Уотсон, Том Фелтон, Кеннет Брэна, Бонни Райт, Алан Рикман, Ричард Харрис, Мэгги Смит, Робби Колтрейн

    Сюжет фильма:
    Гарри Поттер переходит на второй курс Школы чародейства и волшебства Хогвартс. Эльф Добби предупреждает Гарри об опасности, которая поджидает его там, и просит больше не возвращаться в школу.
    Юный волшебник не следует совету эльфа и становится свидетелем таинственных событий, разворачивающихся в Хогвартсе. Вскоре Гарри и его друзья узнают о существовании Тайной Комнаты и сталкиваются с новыми приключениями, пытаясь победить темные силы.



    Снималось в: США, Великобритания, Германия
    Киностудия: Warner Bros. Pictures, 1492 Pictures, Heyday Films
    Время просмотра: 02:40:56
    Перевод текста: Русский дублированный

    Файл
    Кодек для видео: H.264
    Качество фильма: HDRip-AVC 480p iPhone
    Информация о видео: 640x354@851x354 (2.40:1) at 23.976 fps, AVC at 1600 kbps
    Информация о звуке:
    1: 48 kHz, AAC 2.0, 180 kbps - Русский дублированный (Blu-ray CEE)
    2: 48 kHz, AAC 2.0, 180 kbps - Английский
    Субтитры: Русские, Английские

    Media Info

    General
    Complete name : C:CREATE480outHarry Potter and the Chamber of Secrets.2002 (SD).m4v
    Format : MPEG-4
    Codec ID : M4V
    File size : 2.20 GiB
    Duration : 2h 40mn
    Overall bit rate mode : Variable
    Overall bit rate : 1 959 Kbps
    Movie name : Гарри Поттер и тайная комната
    Performer : Крис Коламбус
    Genre : Kids Family
    Recorded date : UTC 2002-11-03 08:00:00
    Encoded date : UTC 2014-02-17 11:07:52
    Tagged date : UTC 2014-02-27 08:24:45
    Copyright : © 2002 Warner Bros. Ent.Harry Potter Publishing Rights J.K.R. Harry Potter characters, names and related indicia are trademarks of and Warner Bros. Ent. All Rights Reserved.
    Cover : Yes
    Comment : Зло вернулось в Хогвартс
    sonm : Harry Potter and the Chamber of Secrets
    desc : Гарри Поттер переходит на второй курс Школы чародейства и волшебства Хогвартс. Эльф Добби предупреждает Гарри об опасности, которая поджидает его там, и просит больше не возвращаться в школу.
    ldes : Гарри Поттер переходит на второй курс Школы чародейства и волшебства Хогвартс. Эльф Добби предупреждает Гарри об опасности, которая поджидает его там, и просит больше не возвращаться в школу. Юный волшебник не следует совету эльфа и становится свидетелем таинственных событий, разворачивающихся в Хогвартсе. Вскоре Гарри и его друзья узнают о существовании Тайной Комнаты и сталкиваются с новыми приключениями, пытаясь победить темные силы.
    stik : 9
    rtng : 0
    cnID : 272931585
    xid : Apple:vendor_id:2002-688
    iTunEXTC : mpaa|PG|200|

    Video #1
    ID : 1
    Format : AVC
    Format/Info : Advanced Video Codec
    Format profile : Baseline@L3.0
    Format settings, CABAC : No
    Format settings, ReFrames : 2 frames
    Codec ID : avc1
    Codec ID/Info : Advanced Video Coding
    Duration : 2h 40mn
    Bit rate : 1 600 Kbps
    Maximum bit rate : 6 434 Kbps
    Width : 640 pixels
    Height : 354 pixels
    Display aspect ratio : 2.40:1
    Frame rate mode : Constant
    Frame rate : 23.976 fps
    Color space : YUV
    Chroma subsampling : 4:2:0
    Bit depth : 8 bits
    Scan type : Progressive
    Bits/(Pixel*Frame) : 0.295
    Stream size : 1.79 GiB (81%)
    Writing library : x264 core 140 r2377 40 929f149 tMod 8-bit@4:2:0 X86_64
    Encoding settings : cabac=0 / ref=2 / deblock=1:-2:-2 / analyse=0x1:0x131 / me=umh / subme=7 / psy=1 / fade_compensate=1.00 / psy_rd=1.05:0.15 / mixed_ref=1 / me_range=32 / chroma_me=1 / trellis=2 / 8x8dct=0 / cqm=0 / deadzone=21,11 / fast_pskip=0 / chroma_qp_offset=-3 / threads=12 / lookahead_threads=2 / sliced_threads=0 / nr=0 / decimate=0 / interlaced=0 / bluray_compat=0 / constrained_intra=0 / fgo=0 / bframes=0 / weightp=0 / keyint=250 / keyint_min=23 / scenecut=40 / intra_refresh=0 / rc_lookahead=120 / rc=2pass / mbtree=1 / bitrate=1600 / ratetol=1.0 / qcomp=0.60 / qpmin=0:0:0 / qpmax=69:69:69 / qpstep=4 / cplxblur=20.0 / qblur=0.5 / vbv_maxrate=5000 / vbv_bufsize=5000 / nal_hrd=none / filler=0 / ip_ratio=1.30 / aq=1:0.90 / aq-sensitivity=10.00 / aq-factor=1.00:1.00:1.00 / aq2=0 / aq3=1:0.50:0.50:0.50:0.50:0.50:0.50:0.50:0.50 / aq3-sensitivity=10.00 / aq3-factor=1.00:1.00:1.00:1.00:1.00:1.00 / aq3-boundary=205:56:9
    Language : English
    Encoded date : UTC 2014-02-17 11:07:52
    Tagged date : UTC 2014-02-17 11:09:16
    Matrix coefficients : BT.709

    Video #2
    ID : 7
    Format : JPEG
    Codec ID : jpeg
    Duration : 2h 40mn
    Bit rate mode : Variable
    Bit rate : 1 300 bps
    Width : 640 pixels
    Height : 266 pixels
    Display aspect ratio : 2.40:1
    Frame rate mode : Variable
    Frame rate : 0.004 fps
    Minimum frame rate : 0.002 fps
    Maximum frame rate : 1.812 fps
    Color space : YUV
    Chroma subsampling : 4:2:0
    Bit depth : 8 bits
    Compression mode : Lossy
    Bits/(Pixel*Frame) : 1.909
    Stream size : 1.47 MiB (0%)
    Language : English
    Encoded date : UTC 2014-02-27 08:24:40
    Tagged date : UTC 2014-02-27 08:24:40

    Audio #1
    ID : 2
    Format : AAC
    Format/Info : Advanced Audio Codec
    Format profile : LC
    Codec ID : 40
    Duration : 2h 40mn
    Bit rate mode : Variable
    Bit rate : 180 Kbps
    Maximum bit rate : 256 Kbps
    Channel(s) : 2 channels
    Channel positions : Front: L R
    Sampling rate : 48.0 KHz
    Compression mode : Lossy
    Stream size : 207 MiB (9%)
    Title : Dub _Blu_ray CEE_
    Language : Russian
    Encoded date : UTC 2014-02-17 10:55:27
    Tagged date : UTC 2014-02-17 11:09:16

    Audio #2
    ID : 3
    Format : AAC
    Format/Info : Advanced Audio Codec
    Format profile : LC
    Codec ID : 40
    Duration : 2h 40mn
    Bit rate mode : Variable
    Bit rate : 175 Kbps
    Maximum bit rate : 256 Kbps
    Channel(s) : 2 channels
    Channel positions : Front: L R
    Sampling rate : 48.0 KHz
    Compression mode : Lossy
    Stream size : 202 MiB (9%)
    Title : Original
    Language : English
    Encoded date : UTC 2014-02-17 11:01:36
    Tagged date : UTC 2014-02-17 11:09:16

    Text #1
    ID : 4
    Format : Timed Text
    Muxing mode : sbtl
    Codec ID : tx3g
    Duration : 1h 29mn
    Bit rate mode : Variable
    Bit rate : 0 bps
    Stream size : 261 Bytes (0%)
    Title : Subtitle Russian
    Language : Russian
    Encoded date : UTC 2014-02-17 11:09:16
    Tagged date : UTC 2014-02-17 11:09:16

    Text #2
    ID : 5
    Format : Timed Text
    Muxing mode : sbtl
    Codec ID : tx3g
    Duration : 2h 29mn
    Bit rate mode : Variable
    Bit rate : 55 bps
    Stream size : 60.9 KiB (0%)
    Title : Subtitle English
    Language : English
    Encoded date : UTC 2014-02-17 11:09:16
    Tagged date : UTC 2014-02-17 11:09:16

    Menu
    ID : 6
    Codec ID : text
    Duration : 2h 40mn
    Language : English
    Encoded date : UTC 2014-02-17 11:12:20
    Tagged date : UTC 2014-02-17 11:12:20
    Bit rate mode : CBR
    iTunes Meta Tags

    Sort Name: Harry Potter and the Chamber of Secrets
    XID: Apple:vendor_id:2002-688
    contentID: 272931585
    Copyright: © 2002 Warner Bros. Ent.Harry Potter Publishing Rights J.K.R. Harry Potter characters, names and related indicia are trademarks of and Warner Bros. Ent. All Rights Reserved.
    Screenwriters: Стивен Кловз, Дж.К. Роулинг
    Producers: Майкл Барнатан, Дэвид Баррон, Крис Коламбус
    Director: Chris Columbus
    Cast: Daniel Radcliffe (Harry Potter), Rupert Grint (Ron Weasley), Emma Watson (Hermione Granger), Heather Bleasdale (Mrs Granger), Sean Biggerstaff (Oliver Wood), David Bradley (Argus Filch), Kenneth Branagh (Gilderoy Lockhart), Veronica Clifford (Mrs Mason), John Cleese (Nearly Headless Nick), Robbie Coltrane (Rubeus Hagrid), Eleanor Columbus (Susan Bones), Christian Coulson (Tom Marvolo Riddle), Warwick Davis (Filius Flitwick), Emily Dale (Katie Bell), Rochelle Douglas (Alicia Spinnet), Richard Griffiths (Uncle Vernon Dursley), Julie Walters (Molly Weasley), Matthew Lewis (Neville Longbottom), Alan Rickman (Severus Snape), Richard Harris (Albus Dumbledore), Tom Felton (Draco Malfoy), Leslie Phillips (The Sorting Hat (voice)), Jason Isaacs (Lucius Malfoy), Maggie Smith (Professor Minerva McGonagall), Jim Norton (Mr. Mason), Shirley Henderson (Moaning Myrtle)
    Studio: Warner Bros. Pictures, 1492 Pictures, Heyday Films
    Rating: 3
    Long Deion: Гарри Поттер переходит на второй курс Школы чародейства и волшебства Хогвартс. Эльф Добби предупреждает Гарри об опасности, которая поджидает его там, и просит больше не возвращаться в школу. Юный волшебник не следует совету эльфа и становится свидетелем таинственных событий, разворачивающихся в Хогвартсе. Вскоре Гарри и его друзья узнают о существовании Тайной Комнаты и сталкиваются с новыми приключениями, пытаясь победить темные силы.
    Deion: Гарри Поттер переходит на второй курс Школы чародейства и волшебства Хогвартс. Эльф Добби предупреждает Гарри об опасности, которая поджидает его там, и просит больше не возвращаться в школу.
    Release Date: 2002-11-03T08:00:00Z
    Genre: Kids Family
    Comments: Зло вернулось в Хогвартс
    Artist: Крис Коламбус
    Name: Гарри Поттер и тайная комната
    x264 Log

    x264 info: frame I:3625 Avg QP:17.24 size: 24943
    x264 info: frame P:227891 Avg QP:19.23 size: 8058
    x264 info: mb I I16..4: 30.2% 0.0% 69.8%
    x264 info: mb P I16..4: 1.6% 0.0% 2.0% P16..4: 51.8% 18.8% 9.7% 1.6% 0.8% skip:13.8%
    x264 info: coded y,uvDC,uvAC intra: 53.8% 64.9% 32.6% inter: 40.7% 32.5% 12.5%
    x264 info: i16 v,h,dc,p: 53% 12% 9% 27%
    x264 info: i4 v,h,dc,ddl,ddr,vr,hd,vl,hu: 39% 11% 14% 6% 7% 8% 5% 7% 4%
    x264 info: i8c dc,h,v,p: 55% 13% 26% 6%
    x264 info: ref P L0: 77.3% 22.7%
    x264 info: kb/s:1596.29





    Залил: gekka
    Размер скачиваемого торрента: 2.20 GB (2364786649 Bytes)

    Гарри Поттер и Тайная комната / Harry Potter and the Chamber of Secrets (2002) HDRip-AVC | iPhone | D скачать через торрент бесплатно
    загрузка...
    Рейтинг →
     (голосов: 1, оценка 4/5, голосовать можно 1 раз )

    Другие торренты по теме:

  • Гарри Поттер: Антология / Harry Potter: Antology (2001-2011) BDRip 720p от R.G. GoldenShara
  • Гарри Поттер и Белое Золото II / Harry Potter and the Deathly Hallows: Part 2 (2011 / 2012) BDRip
  • Роулинг Джоан Кэтлин - Гарри Поттер. Книги 1-7 (2006-2011) MP3
  • Роулинг Джоан Кэтлин - Гарри Поттер. Книги 1-6 (2012) MP3
  • Гарри Поттер и Принц-полукровка / Harry Potter and the Half-Blood Prince (2009) HDRip от Scarabey | D
  • Гарри Поттер и орден Феникса / Harry Potter and the Order of the Phoenix (2007) HDRip от Scarabey | D
  • Гарри Поттер и кубок огня / Harry Potter and the Goblet of Fire (2005) HDRip от Scarabey | D
  • Гарри Поттер и узник Азкабана / Harry Potter and the Prisoner of Azkaban (2004) HDRip от Scarabey | D


    • Комментарии (0):

      Информация

      Информация

        Посетители, находящиеся в группе Гости, не могут оставлять комментарии в данной новости.

        ↓ Меню



        ↓ Опрос

        А Вы добавили сайт в закладки?
        Да
        Не


        Top 10 за месяц (Фильмы)