.
Авторизация | Регистрация
Хочешь лучшие торренты? Добавь свой email!
Добавить
» » Афера по-американски / Суета По-Американски / American Hustle (2013) BDRip 1080p от GORESEWAGE | LM, L1 скачать через торрент бесплатно




    Афера по-американски / Суета По-Американски / American Hustle (2013) BDRip 1080p от GORESEWAGE | LM, L1 скачать через торрент бесплатно

    Опубликовал: Админ | Дата: 27-02-2015, 11:10 | Просмотров: 285



    Афера по-американски / Суета По-Американски / American Hustle

    Создали в: 2013
    Снималось в: США
    Категория жанра: драма, комедия, криминал
    Время просмотра: 02:18:04
    Перевод текста 1: Любительский (многоголосый закадровый) Студия Paradox
    Перевод текста 2: Любительский (одноголосый закадровый) Алексей Матвеев (Doctor_Joker)
    Оригинальная аудиодорожка: English
    Субтитры: Russian (Full Алексей Матвеев (Doctor_Joker)), English (Forced, Full, SDH)
    Киностудия: Atlas Entertainment, Annapurna Pictures

    Главный режиссёр: Дэвид О. Расселл / David O. Russell

    Актеры: Кристиан Бэйл, Эми Адамс, Брэдли Купер, Дженнифер Лоуренс, Джереми Реннер, Луис С.К., Алессандро Нивола, Джек Хьюстон, Роберт Де Ниро, Майкл Пенья и др.

    Сюжет: В основе сюжета фильма реальная спецоперация, проводимая в конце 70-х - начале 80-х ФБР под кодовым названием Abscam. Она изначально была нацелена на расследование торговли краденым товаром. ФБР собиралось внедрить в преступную среду своих агентов под видом посредников, скупающих краденые шедевры для богатых коллекционеров Ближнего Востока. Впоследствии операция превратилась в изобличение коррупции на разных уровнях.



    Sample NEW!!!!!!!!!!!!!!!!!!!!!!!!!!!!!!!!!!!!!!!!!!!!!!!!!!!!!!!!!!

    Качество фильма: BDRip 1080p
    Контейнер: MKV
    Информация о видео кодек: MPEG-4 AVC Video
    Информация о звуке кодек: DTS / AC3
    Информация о видео: MPEG-4 AVC Video / 15300 kbps / 1920x800p / 23,976 fps / 2.40:1 / High Profile 4.1
    Информация о звуке 1: Russian / AC3 / 2.0 / 48 kHz / 256 kbps / 16-bit | MVO Студия Paradox
    Информация о звуке 2: Russian / DTS / 5.1 / 48 kHz / 1536 kbps / 24-bit | VO Алексей Матвеев (Doctor_Joker)
    Информация о звуке 3: English / DTS / 5.1 / 48 kHz / 1536 kbps / 24-bit | Original
    Навигация по главам: да

    Screens

    MediaInfo
    C:/GORESEWAGE/American Hustle 2013 BDRip 1080p GORESEWAGE.mkv
    General
    Unique ID : 240160637011925805891003333819836802939 (0xB4AD41982FDA1E3BA93928F2064A277B)
    Complete name : C:/GORESEWAGE/American Hustle 2013 BDRip 1080p GORESEWAGE.mkv
    Format : Matroska
    Format version : Version 4 / Version 2
    File size : 17.9 GiB
    Duration : 2h 18mn
    Overall bit rate : 18.6 Mbps
    Movie name : American Hustle 2013 BDRip 1080p GORESEWAGE
    Encoded date : UTC 2014-03-03 13:22:19
    Writing application : mkvmerge v6.1.0 (;Old Devil;) built on Mar 2 2013 14:32:37
    Writing library : libebml v1.3.0 libmatroska v1.4.0
    Attachment : Yes
    Video #1
    ID : 1
    Format : AVC
    Format/Info : Advanced Video Codec
    Format profile : High@L4.1
    Format settings, CABAC : Yes
    Format settings, ReFrames : 5 frames
    Codec ID : V_MPEG4/ISO/AVC
    Duration : 2h 18mn
    Bit rate : 15.3 Mbps
    Width : 1 920 pixels
    Height : 800 pixels
    Display aspect ratio : 2.40:1
    Frame rate mode : Constant
    Frame rate : 23.976 fps
    Color space : YUV
    Chroma subsampling : 4:2:0
    Bit depth : 8 bits
    Scan type : Progressive
    Bits/(Pixel*Frame) : 0.415
    Stream size : 14.4 GiB (80%)
    Title : American Hustle 2013 BDRip 1080p GORESEWAGE
    Writing library : x264 core 140 r2377 40 929f149 tMod 8-bit@4:2:0 X86_64
    Encoding settings : cabac=1 / ref=5 / deblock=1:-3:-3 / analyse=0x3:0x113 / me=umh / subme=11 / psy=1 / fade_compensate=0.00 / psy_rd=1.10:0.00 / mixed_ref=1 / me_range=32 / chroma_me=1 / trellis=2 / 8x8dct=1 / cqm=0 / deadzone=21,11 / fast_pskip=0 / chroma_qp_offset=-2 / threads=18 / lookahead_threads=3 / sliced_threads=0 / nr=0 / decimate=0 / interlaced=0 / bluray_compat=0 / constrained_intra=0 / fgo=0 / bframes=8 / b_pyramid=2 / b_adapt=2 / b_bias=0 / direct=3 / weightb=1 / open_gop=0 / weightp=2 / keyint=240 / keyint_min=24 / scenecut=40 / intra_refresh=0 / rc=2pass / mbtree=0 / bitrate=15300 / ratetol=1.0 / qcomp=0.70 / qpmin=0:0:0 / qpmax=69:69:69 / qpstep=4 / cplxblur=20.0 / qblur=0.5 / ip_ratio=1.20 / pb_ratio=1.20 / aq=4:0.75 / aq-sensitivity=10.00 / aq-factor=1.00:1.00:1.00 / aq2=0 / aq3=0
    Language : English
    Default : Yes
    Forced : No
    Audio #2
    ID : 2
    Format : AC-3
    Format/Info : Audio Coding 3
    Mode extension : CM (complete main)
    Format settings, Endianness : Big
    Codec ID : A_AC3
    Duration : 2h 18mn
    Bit rate mode : Constant
    Bit rate : 256 Kbps
    Channel count : 2 channels
    Channel positions : Front: L R
    Sampling rate : 48.0 KHz
    Bit depth : 16 bits
    Compression mode : Lossy
    Stream size : 253 MiB (1%)
    Title : MVO Студия Paradox
    Language : Russian
    Default : Yes
    Forced : No
    Audio #3
    ID : 3
    Format : DTS
    Format/Info : Digital Theater Systems
    Mode : 16
    Format settings, Endianness : Big
    Codec ID : A_DTS
    Duration : 2h 18mn
    Bit rate mode : Constant
    Bit rate : 1 510 Kbps
    Channel count : 6 channels
    Channel positions : Front: L C R, Side: L R, LFE
    Sampling rate : 48.0 KHz
    Bit depth : 24 bits
    Compression mode : Lossy
    Stream size : 1.46 GiB (8%)
    Title : Алексей Матвеев (Doctor_Joker)
    Language : Russian
    Default : No
    Forced : No
    Audio #4
    ID : 4
    Format : DTS
    Format/Info : Digital Theater Systems
    Mode : 16
    Format settings, Endianness : Big
    Codec ID : A_DTS
    Duration : 2h 18mn
    Bit rate mode : Constant
    Bit rate : 1 509 Kbps
    Channel count : 6 channels
    Channel positions : Front: L C R, Side: L R, LFE
    Sampling rate : 48.0 KHz
    Bit depth : 24 bits
    Compression mode : Lossy
    Stream size : 1.46 GiB (8%)
    Title : Original
    Language : English
    Default : No
    Forced : No
    Text #5
    ID : 5
    Format : UTF-8
    Codec ID : S_TEXT/UTF8
    Codec ID/Info : UTF-8 Plain Text
    Title : Алексей Матвеев (Doctor_Joker)
    Language : Russian
    Default : No
    Forced : No
    Text #6
    ID : 6
    Format : PGS
    Muxing mode : zlib
    Codec ID : S_HDMV/PGS
    Codec ID/Info : The same subtitle format used on BDs/HD-DVDs
    Title : Forced
    Language : English
    Default : No
    Forced : No
    Text #7
    ID : 7
    Format : UTF-8
    Codec ID : S_TEXT/UTF8
    Codec ID/Info : UTF-8 Plain Text
    Title : Full
    Language : English
    Default : No
    Forced : No
    Text #8
    ID : 8
    Format : UTF-8
    Codec ID : S_TEXT/UTF8
    Codec ID/Info : UTF-8 Plain Text
    Title : SDH
    Language : English
    Default : No
    Forced : No
    Menu
    00:00:00.000 : en:00:00:00.000
    00:07:12.641 : en:00:07:12.641
    00:14:11.142 : en:00:14:11.142
    00:24:08.822 : en:00:24:08.822
    00:31:28.970 : en:00:31:28.970
    00:39:16.104 : en:00:39:16.104
    00:48:40.334 : en:00:48:40.334
    00:57:01.001 : en:00:57:01.001
    01:06:18.600 : en:01:06:18.600
    01:15:30.943 : en:01:15:30.943
    01:24:12.756 : en:01:24:12.756
    01:33:09.793 : en:01:33:09.793
    01:41:35.089 : en:01:41:35.089
    01:51:45.824 : en:01:51:45.824
    02:00:25.301 : en:02:00:25.301
    02:09:50.992 : en:02:09:50.992

    AddInfo

    * За дорогу №1 thx Студия Paradox.
    * За дорогу №2 thx Алексей Матвеев (Doctor_Joker) будулайроманов. Работа со звуком: sashock86.
    * За сабы №1 thx Алексей Матвеев (Doctor_Joker).

    Размер скачиваемого торрента: 17.91 GB (19233675551 Bytes)

    Афера по-американски / Суета По-Американски / American Hustle (2013) BDRip 1080p от GORESEWAGE | LM, L1 скачать через торрент бесплатно
    загрузка...
    Рейтинг →
     (голосов: 1, оценка 5/5, голосовать можно 1 раз )

    Другие торренты по теме:

  • Суета по - американски / Афера по - американски / American Hustle (2013) DVDScr скачать через торрент бесплатно
  • Афера по-американски / Суета По-Американски / American Hustle (2013) BDRip 720p | L1
  • Афера по-американски / Суета По-Американски / American Hustle (2013) BDRip-AVC от R.G.TorrBy | Чистый звук скачать через торрент бесплатно
  • Афера по-американски / Суета По-Американски / American Hustle (2013) BDRip-AVC от R.G.TorrBy | Лицензия
  • Афера по-американски (2014) скачать через торрент бесплатно
  • Афера по-американски / American Hustle (2013) DVDScr | L скачать через торрент бесплатно
  • Афера по-американски / American Hustle (2013) DVDScr от Один 777 | L скачать через торрент бесплатно
  • Афера по-американски / American Hustle (2013) DVDScr | Звук с TS скачать через торрент бесплатно


    • Комментарии (0):

      Информация

      Информация

        Посетители, находящиеся в группе Гости, не могут оставлять комментарии в данной новости.

        ↓ Меню



        ↓ Опрос

        А Вы добавили сайт в закладки?
        Да
        Не


        Top 10 за месяц (Фильмы)