.
Авторизация | Регистрация
Хочешь лучшие торренты? Добавь свой email!
Добавить
» » 9 месяцев строгого режима / 9 mois ferme (2013) BDRip 720p | Чистый звук скачать торрент бесплатно




    9 месяцев строгого режима / 9 mois ferme (2013) BDRip 720p | Чистый звук скачать торрент бесплатно

    Опубликовал: Админ | Дата: 27-02-2015, 11:10 | Просмотров: 213



    Детально о кино
    Русское название: 9 месяцев строгого режима
    Русское название в мировом прокате: 9 mois ferme
    Создали в: 2013
    Категория жанра: Комедия
    Главный режиссер: Альбер Дюпонтель
    Актеры:Альбер Дюпонтель, Сандрин Киберлэн, Николя Марье, Филипп Юшан, Филипп Дюкен, Були Ланнерс, Кристиан Эк, Жиль Гастон-Дрейфус, Мишель Фо, Лорэ Кэлами

    О Фильме: Ариана — судья, трудоголик и блондинка с высокими моральными принципами. Никаких мужчин. Никакой семьи. Никаких детей. Только работа, только закон. Кошмарная новость — и конец идиллии — она беременна! Этого не может быть! — кричит Ариана, начиная расследование самого невероятного дела в своей жизни!Распутать его отчаянно мешают собственные принципы и знаменитый вор. Но нарушить закон Ариане все же придется. И лучше бы ей не знать, что же на самом деле произошло!



    Снималось в: Франция
    Время просмотра: 01:22:02
    Перевод текста: Профессиональный (полное дублирование) - Чистый звук | НТВ

    Файл
    Качество фильма: BDRip 720p
    Тип видео: MKV
    Информация о видео: MPEG4/AVC, 1280х536 (2,40:1), 4205 Кбит/сек, 23,976 кадра/сек
    Информация о звуке 1: Русский, (AC3, 6 ch, 384 Кбит/с)
    Информация о звуке 2: Французский (AC3, 6 ch, 640 Кбит/с)
    Навигация по главам: Есть

    MediaInfo:
    Общее
    Уникальный идентификатор : 184626813506615992498442960707876946298 (0x8AE5D4B3B1C438598B38C8C69DFE017A)
    Полное имя : 9 Mois Ferme. (2013) BDRip 720p.mkv
    Формат : Matroska
    Версия формата : Version 2
    Размер файла : 3,00 Гбайт
    Продолжительность : 1 ч. 22 м.
    Общий поток : 5228 Кбит/сек
    Дата кодирования : UTC 2014-03-02 23:05:20
    Программа кодирования : mkvmerge v5.8.0 (;No Sleep / Pillow;) built on Sep 2 2012 15:37:04
    Библиотека кодирования : libebml v1.2.3 libmatroska v1.3.0

    Видео
    Идентификатор : 1
    Формат : AVC
    Формат/Информация : Advanced Video Codec
    Профиль формата : High@L4.1
    Параметр CABAC формата : Да
    Параметр ReFrames формата : 5 кадров
    Идентификатор кодека : V_MPEG4/ISO/AVC
    Продолжительность : 1 ч. 22 м.
    Битрейт : 4205 Кбит/сек
    Ширина : 1280 пикселей
    Высота : 536 пикселей
    Соотношение сторон : 2,40:1
    Режим частоты кадров : Постоянный
    Частота кадров : 23,976 кадра/сек
    Цветовое пространство : YUV
    Субдискретизация насыщенности : 4:2:0
    Битовая глубина : 8 бит
    Тип развёртки : Прогрессивная
    Бит/(Пиксели*Кадры) : 0.256
    Размер потока : 2,35 Гбайт (78%)
    Библиотека кодирования : x264 core 142 r2389 956c8d8
    Настройки программы : cabac=1 / ref=5 / deblock=1:0:0 / analyse=0x3:0x113 / me=umh / subme=8 / psy=1 / psy_rd=1.00:0.00 / mixed_ref=1 / me_range=16 / chroma_me=1 / trellis=1 / 8x8dct=1 / cqm=0 / deadzone=21,11 / fast_pskip=1 / chroma_qp_offset=-2 / threads=12 / lookahead_threads=2 / sliced_threads=0 / nr=0 / decimate=1 / interlaced=0 / bluray_compat=0 / constrained_intra=0 / bframes=3 / b_pyramid=2 / b_adapt=2 / b_bias=0 / direct=3 / weightb=1 / open_gop=0 / weightp=2 / keyint=240 / keyint_min=24 / scenecut=40 / intra_refresh=0 / rc_lookahead=50 / rc=2pass / mbtree=1 / bitrate=4205 / ratetol=1.0 / qcomp=0.60 / qpmin=0 / qpmax=69 / qpstep=4 / cplxblur=20.0 / qblur=0.5 / ip_ratio=1.40 / aq=1:1.00
    Язык : French
    Default : Да
    Forced : Нет

    Аудио #1
    Идентификатор : 2
    Формат : AC-3
    Формат/Информация : Audio Coding 3
    Расширение режима : CM (complete main)
    Параметр Endianness формата : Big
    Идентификатор кодека : A_AC3
    Продолжительность : 1 ч. 22 м.
    Вид битрейта : Постоянный
    Битрейт : 384 Кбит/сек
    Каналы : 6 каналов
    Расположение каналов : Front: L C R, Side: L R, LFE
    Частота : 48,0 КГц
    Битовая глубина : 16 бит
    Метод сжатия : С потерями
    Размер потока : 225 Мбайт (7%)
    Заголовок : Rus | Dub | 384 Kbps
    Язык : Russian
    Default : Да
    Forced : Нет

    Аудио #2
    Идентификатор : 3
    Формат : AC-3
    Формат/Информация : Audio Coding 3
    Расширение режима : CM (complete main)
    Параметр Endianness формата : Big
    Идентификатор кодека : A_AC3
    Продолжительность : 1 ч. 22 м.
    Вид битрейта : Постоянный
    Битрейт : 640 Кбит/сек
    Каналы : 6 каналов
    Расположение каналов : Front: L C R, Side: L R, LFE
    Частота : 48,0 КГц
    Битовая глубина : 16 бит
    Метод сжатия : С потерями
    Размер потока : 376 Мбайт (12%)
    Заголовок : Fre | AC3 | 640 Kbps
    Язык : French
    Default : Нет
    Forced : Нет

    Меню
    00:00:00.000 : en:00:00:00.000
    00:06:17.168 : en:00:06:17.168
    00:15:21.838 : en:00:15:21.838
    00:20:28.352 : en:00:20:28.352
    00:24:25.547 : en:00:24:25.547
    00:30:11.226 : en:00:30:11.226
    00:39:57.145 : en:00:39:57.145
    00:46:25.366 : en:00:46:25.366
    00:58:19.705 : en:00:58:19.705
    01:05:30.844 : en:01:05:30.844
    01:14:11.530 : en:01:14:11.530
    01:18:04.471 : en:01:18:04.471

    Скриншоты для ознакомления:


    Релиз подготовил:
    Размер скачиваемого торрента: 3.00 GB (3216713869 Bytes)

    9 месяцев строгого режима / 9 mois ferme (2013) BDRip 720p | Чистый звук торрент скачать бесплатно
    загрузка...
    Рейтинг →
     (голосов: 1, оценка 5/5, голосовать можно 1 раз )

    Другие торренты по теме:

  • 9 месяцев строгого режима / 9 mois ferme (2013) TS скачать через торрент бесплатно
  • 9 месяцев строгого режима / 9 mois ferme (2013) HDRip | Звук с TS
  • 9 месяцев строгого режима / 9 mois ferme (2013) HDRip | Чистый звук скачать через торрент бесплатно
  • 9 месяцев строгого режима / 9 mois ferme (2013) HDRip-AVC от ExKinoRay | Чистый звук
  • 9 месяцев строгого режима / 9 mois ferme (2013) HDRip от Sanjar NeoJet | КПК | Лицензия
  • 9 месяцев строгого режима / 9 mois ferme (2013) HDRip от Scarabey | D | Чистый звук
  • 9 месяцев строгого режима / 9 mois ferme (2013) HDRip от Scarabey | D | Чистый звук
  • 9 месяцев строгого режима / 9 mois ferme (2013) BDRip-AVC от Rulya74 скачать через торрент бесплатно


    • Комментарии (0):

      Информация

      Информация

        Посетители, находящиеся в группе Гости, не могут оставлять комментарии в данной новости.

        ↓ Меню



        ↓ Опрос

        А Вы добавили сайт в закладки?
        Да
        Не


        Top 10 за месяц (Фильмы)