.
Авторизация | Регистрация
Хочешь лучшие торренты? Добавь свой email!
Добавить
» » Колдовская доска / Witchboard (1986) BDRip by msltel | P2, A скачать торрент бесплатно




    Колдовская доска / Witchboard (1986) BDRip by msltel | P2, A скачать торрент бесплатно

    Опубликовал: Админ | Дата: 27-02-2015, 11:10 | Просмотров: 272



    Русское название: Колдовская доска
    Русское название в мировом прокате: Witchboard
    Создали в: 1986
    Категория жанра: Ужасы, триллер, детектив
    Снималось в: США, Великобритания, Paragon Arts International
    Главный режиссер: Кевин Тенни
    Актеры: Тодд Аллен, Стивен Николс, Кэтлин Вилхойт, Клэр Бристол, Берк Байрнс, Райан Кэрролл, Глория Хэйес, Тауни Китэн, Роуз Мари, Сьюзен Никерсон, Кенни Роудс, Джеймс В. Куинн, Джуди Татум

    Сюжет фильма: Завершая неудачную вечеринку, компания беззаботных молодых людей решает развлечься спиритизмом. Вниманию любопытных дилетантов предстает таинственная Колдовская доска. Не принимая экзотическую настольную игру всерьёз, сборище пытается вызвать дух умершего несколько лет назад мальчика Дэвида. Зловещий спиритический знак возвещает им начало адской вакханалии. Очень скоро каждого из них неизбежно ожидает встреча со злым духом безжалостного убийцы Мэлфейтора.

    Качество фильма: BDRip
    Размер скачиваемого торрента: 1.71 ГБ
    Время просмотра: 01:38:09

    Информация о видео: XviD, 1900 Кбит/с, 720x400
    Информация о звуке 1: русский, 48 kHz, AC3, 2 ch, 192 kbps avg, Профессиональный двухголосый, HTB (Ольга Плетнёва и Михаил Тихонов)
    Информация о звуке 2: русский, 48 kHz, AC3, 2 ch, 192 kbps avg, Авторский, Вартан Дохалов

    Внешние файлы
    Информация о звуке: английский, 48 kHz, AC3, 2 ch, 192 kbps avg, Оригинал
    Субтитры: английские (для слабослышащих)

    Исходник:

    Сравнение с исходником



    MediaInfo
    Общее
    Полное имя : D:VideoKoldovskaja doska.1986.XviD.BDRipKoldovskaja doska.1986.eng.SDH.srt
    Размер файла : 140 Кбайт

    Общее
    Полное имя : D:VideoKoldovskaja doska.1986.XviD.BDRipKoldovskaja doska.1986.Original.eng.ac3
    Формат : AC-3
    Формат/Информация : Audio Coding 3
    Размер файла : 135 Мбайт
    Продолжительность : 1 ч. 38 м.
    Режим общего битрейта : Постоянный
    Общий поток : 192 Кбит/сек

    Аудио
    Формат : AC-3
    Формат/Информация : Audio Coding 3
    Расширение режима : CM (complete main)
    Параметр Endianness формата : Big
    Продолжительность : 1 ч. 38 м.
    Вид битрейта : Постоянный
    Битрейт : 192 Кбит/сек
    Каналы : 2 канала
    Расположение каналов : Front: L R
    Частота : 48,0 КГц
    Битовая глубина : 16 бит
    Метод сжатия : С потерями
    Размер потока : 135 Мбайт (100%)

    Общее
    Полное имя : D:VideoKoldovskaja doska.1986.XviD.BDRipKoldovskaja doska.1986.XviD.BDRip.avi
    Формат : AVI
    Формат/Информация : Audio Video Interleave
    Размер файла : 1,58 Гбайт
    Продолжительность : 1 ч. 38 м.
    Общий поток : 2301 Кбит/сек
    Программа кодирования : VirtualDubMod 1.5.10.2 (build 2540/release)
    Библиотека кодирования : VirtualDubMod build 2540/release

    Видео
    Идентификатор : 0
    Формат : MPEG-4 Visual
    Профиль формата : Advanced Simple@L5
    Параметр BVOP формата : 1
    Параметр QPel формата : Нет
    Параметр GMC формата : Без точки перехода
    Параметр матрицы формата : Default (H.263)
    Режим смешивания : Сжатый битовый поток
    Идентификатор кодека : XVID
    Идентификатор кодека/Подсказка : XviD
    Продолжительность : 1 ч. 38 м.
    Битрейт : 1902 Кбит/сек
    Ширина : 720 пикселей
    Высота : 400 пикселей
    Соотношение сторон : 16:9
    Частота кадров : 23,976 кадра/сек
    Цветовое пространство : YUV
    Субдискретизация насыщенности : 4:2:0
    Битовая глубина : 8 бит
    Тип развёртки : Прогрессивная
    Метод сжатия : С потерями
    Бит/(Пиксели*Кадры) : 0.276
    Размер потока : 1,30 Гбайт (83%)
    Библиотека кодирования : XviD 1.2.1 (UTC 2008-12-04)

    Аудио #1
    Идентификатор : 1
    Формат : AC-3
    Формат/Информация : Audio Coding 3
    Расширение режима : CM (complete main)
    Параметр Endianness формата : Big
    Идентификатор кодека : 2000
    Продолжительность : 1 ч. 38 м.
    Вид битрейта : Постоянный
    Битрейт : 192 Кбит/сек
    Каналы : 2 канала
    Расположение каналов : Front: L R
    Частота : 48,0 КГц
    Битовая глубина : 16 бит
    Метод сжатия : С потерями
    Размер потока : 135 Мбайт (8%)
    Выравнивание : Разделение по промежуткам
    Продолжительность промежутка : 42 мс. (1,00 видеокадр)
    Время предзагрузки промежутка : 500 мс.

    Аудио #2
    Идентификатор : 2
    Формат : AC-3
    Формат/Информация : Audio Coding 3
    Расширение режима : CM (complete main)
    Параметр Endianness формата : Big
    Идентификатор кодека : 2000
    Продолжительность : 1 ч. 38 м.
    Вид битрейта : Постоянный
    Битрейт : 192 Кбит/сек
    Каналы : 2 канала
    Расположение каналов : Front: L R
    Частота : 48,0 КГц
    Битовая глубина : 16 бит
    Метод сжатия : С потерями
    Размер потока : 135 Мбайт (8%)
    Выравнивание : Разделение по промежуткам
    Продолжительность промежутка : 42 мс. (1,00 видеокадр)
    Время предзагрузки промежутка : 500 мс.
    Скриншоты для ознакомления



    Залил: msltel
    Размер скачиваемого торрента: 1.71 GB (1835404374 Bytes)

    Колдовская доска / Witchboard (1986) BDRip by msltel | P2, A торрент скачать бесплатно
    загрузка...
    Рейтинг →
     (голосов: 1, оценка 3/5, голосовать можно 1 раз )

    Другие торренты по теме:

  • Колдовская доска / Witchboard (1986) HDTV 1080i | A
  • Колдовская доска / Witchboard (1986) BDRip 720p by msltel | P2, A
  • Колдовская доска / Witchboard (1986) BDRip 1080p by msltel | P2, A
  • Колдовская доска 2 / Witchboard 2: The Devils Doorway (1993) BDRip-AVC | A


    • Комментарии (0):

      Информация

      Информация

        Посетители, находящиеся в группе Гости, не могут оставлять комментарии в данной новости.

        ↓ Меню



        ↓ Опрос

        А Вы добавили сайт в закладки?
        Да
        Не


        Top 10 за месяц (Фильмы)