.
Авторизация | Регистрация
Хочешь лучшие торренты? Добавь свой email!
Добавить
» » Гольф-клуб / Caddyshack (1980) BDRemux 1080p от MediaClub | D, A скачать торрент бесплатно




    Гольф-клуб / Caddyshack (1980) BDRemux 1080p от MediaClub | D, A скачать торрент бесплатно

    Опубликовал: Админ | Дата: 27-02-2015, 11:10 | Просмотров: 276



    Детально о кино
    Русское название: Гольф-клуб
    Русское название в мировом прокате: Caddyshack
    Создали в: 1980
    Категория жанра: Комедия, спорт
    Главный режиссер: Харольд Рэмис
    Актеры: Чеви Чейз, Родни Денджерфилд, Тед Найт, Майкл О’Киф, Билл Мюррэй, Сара Холкомб, Скотт Коломби, Синди Морган, Дэн Ресин, Генри Уилкоксон, Илэйн Аикен, Альберт Сэлми, Энн Райерсон, Брайан Дойл-Мюррей, Хэмилтон Митчел, Питер Беркрот, Джон Ф. Бармон мл., Луис Кибби, Брайан МакКоннаки, Скотт Пауэлл, Энн Крилли, Кордис Херд, Скотт Садден, Джеки Дэвис, Томас А. Карлин, Минерва Скелза, Кеннет Бурритт, Ребекка Бурритт, Бобби Косстрин, Скотт Джексон

    Сюжет: Гольф… Спокойный, размеренный и интеллигентный вид спорта… Как бы не так! В нашем клубе любителей этой игры кипят невиданные страсти! Вот, например, Карл Спаклер, безумный смотритель поля, уже объявил Третью Мировую Войну… суслику-террористу. А важный судья Смайлз так одержим игрой, что не замечает, как его прелестная племянница похотливо поглядывает на местных мужчин. А самодовольный плейбой Тай Уэбб? Он прекрасно бьет он по мячу, но не подозревает, что ему самому скоро наподдадут, как следует! Полное Безумие, скажете вы? Нет! Просто наши герои слегка ГОЛЬФанутые!




    Снималось в: США
    Киностудия: Orion Pictures Corporation
    Время просмотра: 01:38:00
    Перевод текста: Дублированный, авторский одноголосый

    Файл
    Качество фильма: Blu-ray Remux 1080p
    Информация о видео: VC-1, 22912 Кбит/с, 1920x1080, 23.976 кадр/с
    Информация о звуке #1: Русский (AC3, 2 ch, 192 Кбит/с) / Дублированный (Варус-Видео)
    Информация о звуке #2: Русский (AC3, 2 ch, 192 Кбит/с) / Авторский одноголосый (А. Михалёв)
    Информация о звуке #3: Английский (DTS-HD MA, 6 ch, 3907 Кбит/с)
    Субтитры: Английские

    Скриншоты для ознакомления


    MI
    Общее
    Уникальный идентификатор : 201540275969617709657576989195245996078 (0x979F3EC8A35E9EE5BCBDD73DCFA4482E)
    Полное имя : D:Mои раздачиCaddyshack.1980.BDRemux.1080p-MediaClub.mkv
    Формат : Matroska
    Версия формата : Version 4 / Version 2
    Размер файла : 18,6 Гбайт
    Продолжительность : 1 ч. 38 м.
    Режим общего битрейта : Переменный
    Общий поток : 27,2 Мбит/сек
    Название фильма : -=MediaClub=-
    Дата кодирования : UTC 2014-03-03 08:41:51
    Программа кодирования : mkvmerge v6.1.0 (;Old Devil;) built on Mar 4 2013 09:10:42
    Библиотека кодирования : libebml v1.3.0 libmatroska v1.4.0

    Видео
    Идентификатор : 1
    Формат : VC-1
    Профиль формата : Advanced@L3
    Идентификатор кодека : V_MS/VFW/FOURCC / WVC1
    Идентификатор кодека/Подсказка : Microsoft
    Продолжительность : 1 ч. 38 м.
    Ширина : 1920 пикселей
    Высота : 1080 пикселей
    Соотношение сторон : 16:9
    Режим частоты кадров : Постоянный
    Частота кадров : 23,976 кадра/сек
    Цветовое пространство : YUV
    Субдискретизация насыщенности : 4:2:0
    Битовая глубина : 8 бит
    Тип развёртки : Прогрессивная
    Метод сжатия : С потерями
    Заголовок : -=MediaClub=-
    Default : Да
    Forced : Да

    Аудио #1
    Идентификатор : 2
    Формат : AC-3
    Формат/Информация : Audio Coding 3
    Расширение режима : CM (complete main)
    Параметр Endianness формата : Big
    Идентификатор кодека : A_AC3
    Продолжительность : 1 ч. 38 м.
    Вид битрейта : Постоянный
    Битрейт : 192 Кбит/сек
    Каналы : 2 канала
    Расположение каналов : Front: L R
    Частота : 48,0 КГц
    Битовая глубина : 16 бит
    Метод сжатия : С потерями
    Задержка видео : -42 мс.
    Размер потока : 135 Мбайт (1%)
    Заголовок : Dub
    Язык : Russian
    Default : Да
    Forced : Да

    Аудио #2
    Идентификатор : 3
    Формат : AC-3
    Формат/Информация : Audio Coding 3
    Расширение режима : CM (complete main)
    Параметр Endianness формата : Big
    Идентификатор кодека : A_AC3
    Продолжительность : 1 ч. 38 м.
    Вид битрейта : Постоянный
    Битрейт : 192 Кбит/сек
    Каналы : 2 канала
    Расположение каналов : Front: L R
    Частота : 48,0 КГц
    Битовая глубина : 16 бит
    Метод сжатия : С потерями
    Задержка видео : -42 мс.
    Размер потока : 135 Мбайт (1%)
    Заголовок : Михалёв
    Язык : Russian
    Default : Нет
    Forced : Нет

    Аудио #3
    Идентификатор : 4
    Формат : DTS
    Формат/Информация : Digital Theater Systems
    Профиль формата : MA / Core
    Режим : 16
    Параметр Endianness формата : Big
    Идентификатор кодека : A_DTS
    Продолжительность : 1 ч. 38 м.
    Вид битрейта : Переменный
    Битрейт : Неизвестно / 1509 Кбит/сек
    Каналы : 6 каналов
    Расположение каналов : Front: L C R, Side: L R, LFE
    Частота : 48,0 КГц
    Битовая глубина : 24 бит
    Метод сжатия : Без потерь / Lossy
    Язык : English
    Default : Нет
    Forced : Нет

    Текст
    Идентификатор : 5
    Формат : UTF-8
    Идентификатор кодека : S_TEXT/UTF8
    Идентификатор кодека/Информация : UTF-8 Plain Text
    Язык : English
    Default : Нет
    Forced : Нет

    Меню
    00:00:00.000 : en:00:00:00.000
    00:04:41.239 : en:00:04:41.239
    00:06:04.698 : en:00:06:04.698
    00:07:48.385 : en:00:07:48.385
    00:09:58.223 : en:00:09:58.223
    00:11:52.962 : en:00:11:52.962
    00:14:08.765 : en:00:14:08.765
    00:15:57.707 : en:00:15:57.707
    00:18:45.791 : en:00:18:45.791
    00:23:15.728 : en:00:23:15.728
    00:28:52.814 : en:00:28:52.814
    00:37:09.227 : en:00:37:09.227
    00:39:36.958 : en:00:39:36.958
    00:42:55.031 : en:00:42:55.031
    00:46:37.128 : en:00:46:37.128
    00:48:43.504 : en:00:48:43.504
    00:52:58.550 : en:00:52:58.550
    00:58:32.426 : en:00:58:32.426
    01:00:56.319 : en:01:00:56.319
    01:02:34.292 : en:01:02:34.292
    01:04:26.863 : en:01:04:26.863
    01:09:11.898 : en:01:09:11.898
    01:13:48.883 : en:01:13:48.883
    01:19:38.524 : en:01:19:38.524
    01:23:45.145 : en:01:23:45.145
    01:28:03.612 : en:01:28:03.612
    01:30:59.746 : en:01:30:59.746
    01:34:01.553 : en:01:34:01.553


    Релиз: |
    Залил: kaspr
    Размер скачиваемого торрента: 18.62 GB (19997698773 Bytes)

    Гольф-клуб / Caddyshack (1980) BDRemux 1080p от MediaClub | D, A торрент скачать бесплатно
    загрузка...
    Рейтинг →
     (голосов: 1, оценка 3/5, голосовать можно 1 раз )

    Другие торренты по теме:

  • Гольф-клуб 2 / Caddyshack II (1988) DVDRip-AVC от Тorrent-Хzona
  • Гольф-клуб / Caddyshack (1980) BDRip 720p от MediaClub | D, A
  • Гольф-клуб / Caddyshack (1980) BDRip от MediaClub | D, A
  • Гольф-клуб / Caddyshack (1980) BDRip 1080p от NNNB | D, A


    • Комментарии (0):

      Информация

      Информация

        Посетители, находящиеся в группе Гости, не могут оставлять комментарии в данной новости.

        ↓ Меню



        ↓ Опрос

        А Вы добавили сайт в закладки?
        Да
        Не


        Top 10 за месяц (Фильмы)