.
Авторизация | Регистрация
Хочешь лучшие торренты? Добавь свой email!
Добавить
» » Злая кровь / Wicked blood (2014) BDRip-AVC | L1 скачать торрент бесплатно




    Злая кровь / Wicked blood (2014) BDRip-AVC | L1 скачать торрент бесплатно

    Опубликовал: Админ | Дата: 27-02-2015, 11:10 | Просмотров: 230



    Детально о кино
    Русское название: Злая кровь
    Русское название в мировом прокате: Wicked blood
    Создали в: 2014
    Категория жанра: боевик, триллер, драма
    Главный режиссер: Марк Янг
    Актеры: Эбигейл Бреслин, Алекса ПенаВега, Шон Бин, Джеймс Пьюрфой, Джейк Бьюзи

    Сюжет фильма:
    Ханна живет в глухой провинции в обществе дяди - наркомана и старшей сестры - стервы. Каждый вечер проходит за выяснением отношений с родней, а каждые выходные - обязательный поход на обед к другому дяде, местному авторитету и наркоторговцу. Единственная радость в жизни: посещение шахматного кружка. Однажды, проснувшись утром, Ханна окончательно понимает, что в этой дыре ей ничего не светит и решает бежать в поисках лучшей жизни. Но для начала, чтобы скопить денег на билет в счастливое будущее, устраивается работать наркокурьером.



    Снималось в: США
    Киностудия: Industrial Entertainment, Primary Pictures…
    Время просмотра: 01:31:48
    Перевод текста: Любительское (одноголосое) datynet

    Файл
    Кодек для видео: h.264
    Качество фильма: BDRip-AVC
    Информация о видео: AVC, 1024 x 436, ~2200 kbps
    Информация о звуке #1: Русский: AC-3, 6 ch, 448 kbps
    Информация о звуке #2: Английский: AC-3, 6 ch, 448 kbps
    Субтитры: Русский Михаил Васильев

    Семпл

    Скриншоты для ознакомления
    MI
    Общее
    Уникальный идентификатор : 168348648403719580577546155723716462494 (0x7EA6C532C2870C1E037BA147C20E879E)
    Полное имя : G:Злая кровь Wicked blood (2014) BDRip-AVCWicked.Blood.2014.BDRip-AVC.mkv
    Формат : Matroska
    Версия формата : Version 2
    Размер файла : 2,03 Гбайт
    Продолжительность : 1 ч. 31 м.
    Режим общего битрейта : Переменный
    Общий поток : 3159 Кбит/сек
    Программа кодирования : Lavf51.12.1
    Библиотека кодирования : Lavf51.12.1

    Видео
    Идентификатор : 1
    Формат : AVC
    Формат/Информация : Advanced Video Codec
    Профиль формата : Baseline@L3.1
    Параметр CABAC формата : Нет
    Параметр ReFrames формата : 1 кадр
    Параметр GOP формата : M=1, N=12
    Идентификатор кодека : V_MPEG4/ISO/AVC
    Продолжительность : 1 ч. 31 м.
    Вид битрейта : Переменный
    Битрейт : 2200 Кбит/сек
    Максимальный битрейт : 3390 Кбит/сек
    Ширина : 1024 пикселя
    Высота : 436 пикселей
    Соотношение сторон : 2,35:1
    Соотношение сторон в оригинале : 2,35:1
    Режим частоты кадров : Постоянный
    Частота кадров : 23,976 кадра/сек
    Частота кадров в оригинале : 24,000 кадра/сек
    Цветовое пространство : YUV
    Субдискретизация насыщенности : 4:2:0
    Битовая глубина : 8 бит
    Тип развёртки : Прогрессивная
    Бит/(Пиксели*Кадры) : 0.206
    Размер потока : 1,41 Гбайт (70%)
    Язык : English
    Default : Да
    Forced : Нет

    Аудио #1
    Идентификатор : 2
    Формат : AC-3
    Формат/Информация : Audio Coding 3
    Расширение режима : CM (complete main)
    Параметр Endianness формата : Big
    Идентификатор кодека : A_AC3
    Продолжительность : 1 ч. 31 м.
    Вид битрейта : Постоянный
    Битрейт : 448 Кбит/сек
    Каналы : 6 каналов
    Расположение каналов : Front: L C R, Side: L R, LFE
    Частота : 48,0 КГц
    Битовая глубина : 16 бит
    Метод сжатия : С потерями
    Размер потока : 294 Мбайт (14%)
    Язык : Russian
    Default : Да
    Forced : Нет

    Аудио #2
    Идентификатор : 4
    Формат : AC-3
    Формат/Информация : Audio Coding 3
    Расширение режима : CM (complete main)
    Параметр Endianness формата : Big
    Идентификатор кодека : A_AC3
    Продолжительность : 1 ч. 31 м.
    Вид битрейта : Постоянный
    Битрейт : 448 Кбит/сек
    Каналы : 6 каналов
    Расположение каналов : Front: L C R, Side: L R, LFE
    Частота : 48,0 КГц
    Битовая глубина : 16 бит
    Метод сжатия : С потерями
    Размер потока : 294 Мбайт (14%)
    Язык : English
    Default : Да
    Forced : Нет

    Текст
    Идентификатор : 3
    Формат : UTF-8
    Идентификатор кодека : S_TEXT/UTF8
    Идентификатор кодека/Информация : UTF-8 Plain Text
    Язык : Russian
    Default : Да
    Forced : Нет

    Размер скачиваемого торрента: 2.03 GB (2175207185 Bytes)

    Злая кровь / Wicked blood (2014) BDRip-AVC | L1 торрент скачать бесплатно
    загрузка...
    Рейтинг →
     (голосов: 1, оценка 4/5, голосовать можно 1 раз )

    Другие торренты по теме:

  • Злая кровь / Wicked blood (2014) BDRip 1080p от CINEMANIA | L1 скачать через торрент бесплатно
  • Злая кровь / Wicked blood (2014) BDRip 720p от CINEMANIA | L1 скачать через торрент бесплатно
  • Злая кровь / Wicked blood (2014) НDRip | L1 скачать через торрент бесплатно
  • Злая кровь / Wicked Blood (2014) HDRip от Scarabey
  • Злая кровь / Wicked Blood (2014) HDRip-AVC от ExKinoRay | L1 скачать через торрент бесплатно


    • Комментарии (0):

      Информация

      Информация

        Посетители, находящиеся в группе Гости, не могут оставлять комментарии в данной новости.

        ↓ Меню



        ↓ Опрос

        А Вы добавили сайт в закладки?
        Да
        Не


        Top 10 за месяц (Фильмы)