.
Авторизация | Регистрация
Хочешь лучшие торренты? Добавь свой email!
Добавить
» » Девятый дом (Внутри девятого номера) / Inside No. 9 (2014) WEB-DLRip | HamsterStudio скачать через торрент бесплатно




    Девятый дом (Внутри девятого номера) / Inside No. 9 (2014) WEB-DLRip | HamsterStudio скачать через торрент бесплатно

    Опубликовал: Админ | Дата: 27-02-2015, 11:10 | Просмотров: 264



    Русское название: Девятый дом (Внутри девятого номера)
    Русское название в мировом прокате: Inside No. 9
    Создали в: 2014
    Категория жанра: Комедия
    Главный режиссер: Дэвид Керр
    Актеры: Стив Пембертон, Рис Шерсмит, Джемма Артертон, Дэвид Беделла, Анна Чэнселлор, Адам Дикон, Тэмсин Грег, Конлет Хилл, Тим Ки, Кэтрин Паркинсон

    Сюжет: Британская драмеди - новинка 2014 года - расскажет несколько историй из жизни домов с номером 9. Несмотря на то, чем эти истории кажутся поначалу совсем не связанными, финал всегда будет непредсказуемым.…

    Снималось в: Великобритания, BBC Television Centre
    Время просмотра: 4 х ~ 00:29:00
    Перевод текста: Любительский двухголосый - HamsterStudio

    Качество фильма: WEB-DLRip
    Информация о видео: XviD, ~ 1730 Кбит/с, 720x400
    Информация о звуке rus: AC3, 2 ch, 192 Кбит/с

    Список серий
    1. Sardines / Сардины
    2. A Quiet Night In / Тихая ночь
    3. Tom Gerri / Том и Джери
    4. Last Gasp / Последний вздох
    Инфо
    Полное имя : E:Inside No. 9Inside.№9.s01.01.tahiy.avi
    Формат : AVI
    Формат/Информация : Audio Video Interleave
    Размер файла : 427 Мбайт
    Продолжительность : 29 м.
    Общий поток : 2020 Кбит/сек
    Название фильма : Inside No. 9.tahiy
    Программа кодирования : VirtualDubMod 1.5.10.3 | www.virtualdub-fr.org || (build 2550/release)

    Видео
    Идентификатор : 0
    Формат : MPEG-4 Visual
    Профиль формата : Advanced Simple@L5
    Параметр BVOP формата : 1
    Параметр QPel формата : Нет
    Параметр GMC формата : Без точки перехода
    Параметр матрицы формата : Default (MPEG)
    Идентификатор кодека : XVID
    Идентификатор кодека/Подсказка : XviD
    Продолжительность : 29 м.
    Битрейт : 1818 Кбит/сек
    Ширина : 720 пикселей
    Высота : 400 пикселей
    Соотношение сторон : 16:9
    Частота кадров : 25,000 кадров/сек
    Цветовое пространство : YUV
    Субдискретизация насыщенности : 4:2:0
    Битовая глубина : 8 бит
    Тип развёртки : Прогрессивная
    Метод сжатия : С потерями
    Бит/(Пиксели*Кадры) : 0.253
    Размер потока : 384 Мбайт (90%)
    Библиотека кодирования : XviD 1.2.1 (UTC 2008-12-04)

    Аудио
    Идентификатор : 1
    Формат : AC-3
    Формат/Информация : Audio Coding 3
    Расширение режима : CM (complete main)
    Параметр Endianness формата : Big
    Идентификатор кодека : 2000
    Продолжительность : 29 м.
    Вид битрейта : Постоянный
    Битрейт : 192 Кбит/сек
    Каналы : 2 канала
    Расположение каналов : Front: L R
    Частота : 48,0 КГц
    Битовая глубина : 16 бит
    Метод сжатия : С потерями
    Размер потока : 40,6 Мбайт (10%)
    Выравнивание : Разделение по промежуткам
    Продолжительность промежутка : 40 мс. (1,00 видеокадр)
    Время предзагрузки промежутка : 500 мс.






    Внимание! Раздача ведётся путём добавления новых серий!

    Внимание! Раздача ведётся путём добавления новых серий; при каждом добавлении создаётся новый торрент. Чтобы начать докачку новой серии, пользователям необходимо сделать следующее: (1) остановить скачивание, (2) удалить старый торрент у себя из клиента (старые серии удалять не надо), (3) скачать новый торрент и запустить его у себя в клиенте вместо старого, при этом указать клиенту путь в старую папку куда и должно происходить скачивание новых серий.

    Ваш клиент при этом должен произвести хеширование (проверку) старой папки (если не производит сам - помогите ему сделать это), и будет докачивать только те серии которых у вас ещё нет. Старые серии при этом не удаляются, а продолжают раздаваться!

    Eсли вы уже удалили старые серии, то предотвратить повторную закачку старых серий можно, отжав галочку в соответсвующих местах при запуске нового торрента.

    Размер скачиваемого торрента: 1.62 GB (1734995968 Bytes)

    Девятый дом (Внутри девятого номера) / Inside No. 9 (2014) WEB-DLRip | HamsterStudio скачать через торрент бесплатно
    загрузка...
    Рейтинг →
     (голосов: 1, оценка 3/5, голосовать можно 1 раз )

    Другие торренты по теме:

  • Внутри девятого номера / Девятый дом / Inside No. 9 (2014) HDTVRip | Victory Films
  • Девятый дом / Inside No. 9 (2016-2017) HDTVRip-AVC от Studio Victory Films | L


    • Комментарии (0):

      Информация

      Информация

        Посетители, находящиеся в группе Гости, не могут оставлять комментарии в данной новости.

        ↓ Меню



        ↓ Опрос

        А Вы добавили сайт в закладки?
        Да
        Не


        Top 10 за месяц (Фильмы)