.
Авторизация | Регистрация
Хочешь лучшие торренты? Добавь свой email!
Добавить
» » Я, Франкенштейн / I, Frankenstein (2014) BDRip-AVC | iPhone | D скачать через торрент бесплатно




    Я, Франкенштейн / I, Frankenstein (2014) BDRip-AVC | iPhone | D скачать через торрент бесплатно

    Опубликовал: Админ | Дата: 27-02-2015, 11:10 | Просмотров: 309



    Я, Франкенштейн / I, Frankenstein (2014) BDRip-AVC | iPhone | D

    Русское название: Я, Франкенштейн
    Русское название в мировом прокате: I, Frankenstein
    Создали в: 2014
    Категория жанра: фэнтези, боевик, приключения
    Главный режиссер: Стюарт Битти
    Актеры: Аарон Экхарт, Ивонн Страховски, Миранда Отто, Билл Найи, Джай Кортни, Сократис Отто, Аден Янг, Кэйтлин Стэйси, Махеш Джаду, Стив Музакис

    Сюжет фильма:
    Он - монстр. Он - двухсотлетний плод безумной фантазии своего создателя. Он - легенда. Мир, в котором он живет, населен древними горгульями и бессмертными демонами, которые сражаются за обладание человечеством. Величественные соборы скрывают огромные арсеналы, за дверьми научных лабораторий проводятся эксперименты по воскрешению мертвых. Война двух кланов могущественных существ достигает своего пика. И только он, Адам, монстр Франкенштейна, в силах ее остановить.



    Снималось в: США, Австралия
    Киностудия: Hopscotch Features, Lakeshore Entertainment
    Время просмотра: 01:33:10
    Перевод текста: Русский дублированный


    Файл
    Кодек для видео: H.264
    Качество фильма: BDRip-AVC 480p | iPhone
    Информация о видео: 640x362@852x362 (2.35:1) at 23.976 fps, AVC at 1700 kbps
    Информация о звуке:
    1: ААС 2.0 129 kbps - Русский дублированный
    Субтитры: Отсутствуют

    MI

    General
    Complete name : C:CREATE480outI Frankenstein.2014 (SD).m4v
    Format : MPEG-4
    Codec ID : M4V
    File size : 1.19 GiB
    Duration : 1h 33mn
    Overall bit rate mode : Variable
    Overall bit rate : 1 835 Kbps
    Movie name : Я, Франкенштейн
    Performer : Stuart Beattie
    Genre : Action
    Recorded date : UTC 2014-01-23 08:00:00
    Encoded date : UTC 2014-03-01 21:13:55
    Tagged date : UTC 2014-03-02 06:30:05
    Copyright : Hopscotch Features, Lakeshore Entertainment
    Cover : Yes
    Comment : In the battle between good and evil, an immortal holds the key
    sonm : I, Frankenstein
    desc : Монстр Адам, созданный доктором Франкенштейном, благодаря своим уникальным генам доживает до наших дней. Оказавшись в мрачном готическом метрополисе, он попадает в самую гущу вековой войны между двумя кланами бессмертных существ…
    ldes : Монстр Адам, созданный доктором Франкенштейном, благодаря своим уникальным генам доживает до наших дней. Оказавшись в мрачном готическом метрополисе, он попадает в самую гущу вековой войны между двумя кланами бессмертных существ…
    stik : 9
    rtng : 0
    cnID : 461934
    xid : Apple:vendor_id:2013-461934
    iTunEXTC : mpaa|PG-13|300|

    Video #1
    ID : 1
    Format : AVC
    Format/Info : Advanced Video Codec
    Format profile : Baseline@L3.0
    Format settings, CABAC : No
    Format settings, ReFrames : 2 frames
    Codec ID : avc1
    Codec ID/Info : Advanced Video Coding
    Duration : 1h 33mn
    Bit rate : 1 700 Kbps
    Maximum bit rate : 8 347 Kbps
    Width : 640 pixels
    Height : 362 pixels
    Display aspect ratio : 2.35:1
    Frame rate mode : Constant
    Frame rate : 23.976 fps
    Color space : YUV
    Chroma subsampling : 4:2:0
    Bit depth : 8 bits
    Scan type : Progressive
    Bits/(Pixel*Frame) : 0.306
    Stream size : 1.10 GiB (93%)
    Title : I_ Frankenstein _2014_
    Writing library : x264 core 140 r2377 40 929f149 tMod 8-bit@4:2:0 X86_64
    Encoding settings : cabac=0 / ref=2 / deblock=1:-2:-2 / analyse=0x1:0x131 / me=umh / subme=7 / psy=1 / fade_compensate=1.00 / psy_rd=1.00:0.15 / mixed_ref=1 / me_range=32 / chroma_me=1 / trellis=2 / 8x8dct=0 / cqm=0 / deadzone=21,11 / fast_pskip=0 / chroma_qp_offset=-3 / threads=12 / lookahead_threads=2 / sliced_threads=0 / nr=0 / decimate=0 / interlaced=0 / bluray_compat=0 / constrained_intra=0 / fgo=0 / bframes=0 / weightp=0 / keyint=250 / keyint_min=23 / scenecut=40 / intra_refresh=0 / rc_lookahead=80 / rc=2pass / mbtree=1 / bitrate=1700 / ratetol=1.0 / qcomp=0.60 / qpmin=0:0:0 / qpmax=69:69:69 / qpstep=4 / cplxblur=20.0 / qblur=0.5 / vbv_maxrate=5000 / vbv_bufsize=5000 / nal_hrd=none / filler=0 / ip_ratio=1.35 / aq=4:0.90 / aq-sensitivity=10.00 / aq-factor=1.00:1.00:1.00 / aq2=0 / aq3=0
    Language : English
    Encoded date : UTC 2014-03-01 21:13:55
    Tagged date : UTC 2014-03-01 21:14:16
    Matrix coefficients : BT.709

    Video #2
    ID : 5
    Format : JPEG
    Codec ID : jpeg
    Duration : 1h 33mn
    Bit rate mode : Variable
    Bit rate : 308 bps
    Width : 640 pixels
    Height : 272 pixels
    Display aspect ratio : 2.35:1
    Frame rate mode : Constant
    Frame rate : 0.001 fps
    Color space : YUV
    Chroma subsampling : 4:2:0
    Bit depth : 8 bits
    Compression mode : Lossy
    Bits/(Pixel*Frame) : 1.769
    Stream size : 301 KiB (0%)
    Language : English
    Encoded date : UTC 2014-03-02 06:26:45
    Tagged date : UTC 2014-03-02 06:26:46

    Audio
    ID : 2
    Format : AAC
    Format/Info : Advanced Audio Codec
    Format profile : LC
    Codec ID : 40
    Duration : 1h 33mn
    Bit rate mode : Variable
    Bit rate : 132 Kbps
    Maximum bit rate : 160 Kbps
    Channel(s) : 2 channels
    Channel positions : Front: L R
    Sampling rate : 48.0 KHz
    Compression mode : Lossy
    Stream size : 87.6 MiB (7%)
    Title : Dub
    Language : Russian
    Encoded date : UTC 2014-03-01 21:11:52
    Tagged date : UTC 2014-03-01 21:14:16

    Menu
    ID : 4
    Codec ID : text
    Duration : 1h 33mn
    Language : English
    Encoded date : UTC 2014-03-02 06:03:44
    Tagged date : UTC 2014-03-02 06:03:44
    Bit rate mode : CBR
    iTunes Meta Tags

    Sort Name: I, Frankenstein
    XID: Apple:vendor_id:2013-461934
    contentID: 461934
    Copyright: Hopscotch Features, Lakeshore Entertainment
    Screenwriters: Стюарт Битти, Кевин Гревье, Мэри Шелли
    Producers: Сидни Киммел, Гари Лучези, Эндрю Мэйсон
    Director: Стюарт Битти
    Cast: Аарон Экхарт, Ивонн Страховски, Билл Найи, Джай Кортни, Кэйтлин Стэйси, Миранда Отто, Кевин Гревье, Аден Янг, Дениз Акдениз, Сократис Отто // Aaron Eckhart (Adam), Yvonne Strahovski (Terra), Bill Nighy (Naberius), Jai Courtney (Gideon), Miranda Otto (Leonore), Caitlin Stasey (Keziah), Kevin Grevioux (Dekar), Aden Young (Dr. Frankenstein), Deniz Akdeniz (Barachel), Chris Pang (Levi), Socratis Otto (Zuriel), Steve Mouzakis (Helek), Bruce Spence (Molokai)
    Studio: Hopscotch Features, Lakeshore Entertainment
    Rating: 4
    Long Deion: Монстр Адам, созданный доктором Франкенштейном, благодаря своим уникальным генам доживает до наших дней. Оказавшись в мрачном готическом метрополисе, он попадает в самую гущу вековой войны между двумя кланами бессмертных существ…
    Deion: Монстр Адам, созданный доктором Франкенштейном, благодаря своим уникальным генам доживает до наших дней. Оказавшись в мрачном готическом метрополисе, он попадает в самую гущу вековой войны между двумя кланами бессмертных существ…
    Release Date: 2014-01-23T08:00:00Z
    Genre: Action
    Comments: In the battle between good and evil, an immortal holds the key
    Artist: Stuart Beattie
    Name: Я, Франкенштейн
    x264

    x264 info: frame I:2696 Avg QP:19.21 size: 26230
    x264 info: frame P:131177 Avg QP:21.41 size: 8504
    x264 info: mb I I16..4: 31.1% 0.0% 68.9%
    x264 info: mb P I16..4: 1.8% 0.0% 2.8% P16..4: 50.3% 16.3% 8.9% 1.5% 0.7% skip:17.7%
    x264 info: coded y,uvDC,uvAC intra: 59.6% 76.0% 49.2% inter: 37.1% 42.8% 19.2%
    x264 info: i16 v,h,dc,p: 45% 14% 10% 31%
    x264 info: i4 v,h,dc,ddl,ddr,vr,hd,vl,hu: 32% 13% 15% 6% 7% 9% 6% 7% 5%
    x264 info: i8c dc,h,v,p: 53% 13% 24% 9%
    x264 info: ref P L0: 75.1% 24.9%
    x264 info: kb/s:1699.54




    Залил: gekka
    Размер скачиваемого торрента: 1.19 GB (1280707601 Bytes)

    Я, Франкенштейн / I, Frankenstein (2014) BDRip-AVC | iPhone | D скачать через торрент бесплатно
    загрузка...
    Рейтинг →
     (голосов: 1, оценка 4/5, голосовать можно 1 раз )

    Другие торренты по теме:

  • Я, Франкенштейн / I, Frankenstein (2014) HD 1080p | L1 | Трейлер скачать через торрент бесплатно
  • Я, Франкенштейн (2014) скачать через торрент бесплатно
  • OST - I, Frankenstein / Я, Франкенштейн (2014) MP3 скачать через торрент бесплатно
  • Я, Франкенштейн / I, Frankenstein (2014) CAMRip скачать через торрент бесплатно
  • Я, Франкенштейн I, Frankenstein (2013) MP3
  • Я, Франкенштейн / I, Frankenstein (2014) CAMRip*PROPER*
  • Я, Франкенштейн / I, Frankenstein (2014) CAMRip*PROPER* | L1 скачать через торрент бесплатно
  • Я, Франкенштейн / I, Frankenstein (2014) BDRip | Лицензия скачать через торрент бесплатно


    • Комментарии (0):

      Информация

      Информация

        Посетители, находящиеся в группе Гости, не могут оставлять комментарии в данной новости.

        ↓ Меню



        ↓ Опрос

        А Вы добавили сайт в закладки?
        Да
        Не


        Top 10 за месяц (Фильмы)