.
Авторизация | Регистрация
Хочешь лучшие торренты? Добавь свой email!
Добавить
» » Летчик Киви / Kiwi Flyer / Derby Dogs (2012) WEB-DL 720p от CINEMANIA | НТВ скачать через торрент бесплатно




    Летчик Киви / Kiwi Flyer / Derby Dogs (2012) WEB-DL 720p от CINEMANIA | НТВ скачать через торрент бесплатно

    Опубликовал: Админ | Дата: 27-02-2015, 11:10 | Просмотров: 335



    Детально о кино
    Русское название: Лётчик Киви
    Русское название в мировом прокате: Kiwi Flyer / Derby Dogs
    Создали в: 2012
    Категория жанра: комедия, драма, семейный
    Главный режиссер: Тони Симпсон
    Актеры: Эдвард Холл, Тикирау Хэтауэй, Винс Мартин, Тэнди Райт, Даи Хенвуд, Майер ван Гослига, Дуг Коллинг, Джейн Уинтер, Дэвид де Тьери, Мэтт Френч

    Сюжет фильма:
    Герой фильма – мальчик мечтающий участвовать в популярных ежегодных гонках вагонеток, в которых принимал участие ещё его дедушка. Отец решает помочь сыну – конструирует вагонетку под названием Летающая киви. Вскоре он погибает в аварии, не успев завершить свой проект. Спустя год мальчик, несмотря на запрет матери, решает принять участие в гонках в память об отце и собирает команду…



    Снималось в: Новая Зеландия
    Время просмотра: 01:27:04
    Тип перевода: Профессиональное (двухголосое) Нтв

    Файл
    Тип видео: MKV
    Качество фильма: WEB-DL 720p SUPERBAD
    Информация о видео: 4046 kb/s, 1280x720
    Информация о звуке: Russian: AC3, 192 kb/s (2 ch) / English: AC3, 384 kb/s (6 ch)
    Субтитры: Russian kitmur, English
    Дополнительно: Сохранены оригинальные чаптеры как на Blu-Ray
    Размер скачиваемого торрента: 2.87 GB
    Скачать: Сэмпл

    Релиз группы:



    NFO
    Общее
    Derby.Dogs.2012.WEB-DL.720p.CINEMANIA.mkv
    Формат : Matroska
    Версия формата : Version 4 / Version 2
    Размер файла : 2,87 Гбайт
    Продолжительность : 1 ч. 27 м.
    Общий поток : 4716 Кбит/сек
    Название фильма : Release Group CINEMANIA
    Дата кодирования : UTC 2014-03-02 08:08:18
    Программа кодирования : mkvmerge v6.7.0 (;Back to the Ground;) 64bit built on Jan 8 2014 15:10:52
    Библиотека кодирования : libebml v1.3.0 libmatroska v1.4.1

    Видео
    Идентификатор : 1
    Формат : AVC
    Формат/Информация : Advanced Video Codec
    Профиль формата : High@L3.1
    Параметр CABAC формата : Нет
    Параметр ReFrames формата : 2 кадра
    Идентификатор кодека : V_MPEG4/ISO/AVC
    Продолжительность : 1 ч. 27 м.
    Битрейт : 4046 Кбит/сек
    Ширина : 1280 пикселей
    Высота : 720 пикселей
    Соотношение сторон : 16:9
    Режим частоты кадров : Постоянный
    Частота кадров : 23,976 кадра/сек
    Цветовое пространство : YUV
    Субдискретизация насыщенности : 4:2:0
    Битовая глубина : 8 бит
    Тип развёртки : Прогрессивная
    Бит/(Пиксели*Кадры) : 0.183
    Размер потока : 2,46 Гбайт (86%)
    Заголовок : Release Group CINEMANIA
    Язык : English
    Default : Да
    Forced : Нет
    Основные цвета : BT.709
    Характеристики трансфера : BT.709
    Коэффициенты матрицы : BT.709

    Аудио #1
    Идентификатор : 2
    Формат : AC-3
    Формат/Информация : Audio Coding 3
    Расширение режима : CM (complete main)
    Параметр Endianness формата : Big
    Идентификатор кодека : A_AC3
    Продолжительность : 1 ч. 27 м.
    Вид битрейта : Постоянный
    Битрейт : 192 Кбит/сек
    Каналы : 2 канала
    Расположение каналов : Front: L R
    Частота : 48,0 КГц
    Битовая глубина : 16 бит
    Метод сжатия : С потерями
    Размер потока : 120 Мбайт (4%)
    Заголовок : Нтв
    Язык : Russian
    Default : Да
    Forced : Да

    Аудио #2
    Идентификатор : 3
    Формат : AC-3
    Формат/Информация : Audio Coding 3
    Расширение режима : CM (complete main)
    Параметр Endianness формата : Big
    Идентификатор кодека : A_AC3
    Продолжительность : 1 ч. 27 м.
    Вид битрейта : Постоянный
    Битрейт : 384 Кбит/сек
    Каналы : 6 каналов
    Расположение каналов : Front: L C R, Side: L R, LFE
    Частота : 48,0 КГц
    Битовая глубина : 16 бит
    Метод сжатия : С потерями
    Размер потока : 239 Мбайт (8%)
    Заголовок : AC3 5.1
    Язык : English
    Default : Нет
    Forced : Нет

    Текст #1
    Идентификатор : 4
    Формат : UTF-8
    Идентификатор кодека : S_TEXT/UTF8
    Идентификатор кодека/Информация : UTF-8 Plain Text
    Заголовок : kitmur
    Язык : Russian
    Default : Нет
    Forced : Нет

    Текст #2
    Идентификатор : 5
    Формат : UTF-8
    Идентификатор кодека : S_TEXT/UTF8
    Идентификатор кодека/Информация : UTF-8 Plain Text
    Язык : English
    Default : Нет
    Forced : Нет

    Меню
    00:00:00.000 : en:Kiwi Flyer
    00:11:24.000 : en:Trolley Derby
    00:21:57.000 : en:Team
    00:30:50.000 : en:Loan
    00:40:11.000 : en:Hydrogen Peroxide
    00:51:03.000 : en:Snooping
    00:57:27.000 : en:Day of the Race
    01:04:34.000 : en:Preliminaries
    01:14:44.000 : en:The Final
    01:23:37.000 : en:Credits

    Залил: DGEKIGAN
    Размер скачиваемого торрента: 2.87 GB (3079443570 Bytes)

    Летчик Киви / Kiwi Flyer / Derby Dogs (2012) WEB-DL 720p от CINEMANIA | НТВ скачать через торрент бесплатно
    загрузка...
    Рейтинг →
     (голосов: 1, оценка 5/5, голосовать можно 1 раз )

    Другие торренты по теме:

  • Летчик Киви / Kiwi Flyer / Derby Dogs (2012) WEB-DLRip | P2
  • Летчик Киви / Kiwi Flyer / Derby Dogs (2012) BDRip 1080p от CINEMANIA | НТВ скачать через торрент бесплатно
  • Летчик Киви / Kiwi Flyer / Derby Dogs (2012) BDRip 720p от CINEMANIA | НТВ скачать через торрент бесплатно
  • Летчик Киви / Kiwi Flyer / Derby Dogs (2012) BDRip-AVC | Нтв


    • Комментарии (0):

      Информация

      Информация

        Посетители, находящиеся в группе Гости, не могут оставлять комментарии в данной новости.

        ↓ Меню



        ↓ Опрос

        А Вы добавили сайт в закладки?
        Да
        Не


        Top 10 за месяц (Фильмы)