.
Авторизация | Регистрация
Хочешь лучшие торренты? Добавь свой email!
Добавить
» » Меняющие реальность / The Adjustment Bureau (2011) BDRip 720p от GORESEWAGE скачать через торрент бесплатно




    Меняющие реальность / The Adjustment Bureau (2011) BDRip 720p от GORESEWAGE скачать через торрент бесплатно

    Опубликовал: Админ | Дата: 27-02-2015, 11:10 | Просмотров: 204



    Меняющие реальность / The Adjustment Bureau

    Создали в: 2011
    Снималось в: США
    Категория жанра: фантастика, триллер, мелодрама
    Время просмотра: 01:45:50
    Перевод текста 1: Профессиональный (дублированный) BD EUR
    Перевод текста 2: Авторский (одноголосый закадровый) Юрий Сербин
    Перевод текста 3: Любительский (одноголосый закадровый) Вячеслав zamez
    Оригинальная аудиодорожка: English
    Субтитры: Russian (Forced, Full Евгений Воронин, Commentary), Ukrainian (Forced, Full), English (Full, SDH, Commentary), French (Full), Spanish (Full)
    Киностудия: Universal Pictures, Media Rights Capital, Gambit Pictures, Electric Shepherd Productions

    Главный режиссёр: Джордж Нолфи / Jorge Holfi

    Актеры: Мэтт Дэймон, Эмили Блант, Энтони Маки, Джон Слэттери, Теренс Стэмп, Майкл Келли, Энтони Руйвивар, Дэвид Бишинс, Джонни Чикко, Брайан Хейли и др.

    Сюжет: Волею случая конгрессмен Дэвид Норрис узнаёт, что мир движется по заранее написанному плану, за исполнением которого следят работающие в неком Бюро Корректировки люди в шляпах, обладающие сверхъестественными способностями. Как назло, план не предусматривает дальнейших пересечений с балериной Элизой, в которую политик влюблён. Дэвид заручается поддержкой одного из агентов Бюро и начинает неравную борьбу с остальными, отстаивая свободу выбора и личное счастье…



    Sample

    Качество фильма: BDRip 720p
    Контейнер: MKV
    Информация о видео кодек: MPEG-4 AVC Video
    Информация о звуке кодек: DTS / AC3
    Информация о видео: MPEG-4 AVC Video / 6747 kbps / 1280x694p / 23,976 fps / 1.85:1 / High Profile 4.1
    Информация о звуке 1: Russian / DTS / 5.1 / 48 kHz / 768 kbps / 24-bit | Dub BD EUR
    Информация о звуке 2: Russian / DTS / 5.1 / 48 kHz / 1536 kbps / 24-bit | AVO Юрий Сербин
    Информация о звуке 3: Russian / DTS / 5.1 / 48 kHz / 1536 kbps / 24-bit | VO Вячеслав zamez
    Информация о звуке 4: English / DTS / 5.1 / 48 kHz / 1536 kbps / 24-bit | Original
    Информация о звуке 5: English / AC3 / 2.0 / 48 kHz / 192 kbps / 16-bit | Descriрtion
    Информация о звуке 6: English / AC3 / 2.0 / 48 kHz / 192 kbps / 16-bit | Commentary by writer-director George Nolfi
    Навигация по главам: да

    Screens

    MediaInfo
    C:/GORESEWAGE/The Adjustment Bureau 2011 BDRip 720p GORESEWAGE.mkv
    General
    Unique ID : 248615712923686839101794391328438734553 (0xBB09A505961AF5618487D777DF11CED9)
    Complete name : C:/GORESEWAGE/The Adjustment Bureau 2011 BDRip 720p GORESEWAGE.mkv
    Format : Matroska
    Format version : Version 4 / Version 2
    File size : 9.19 GiB
    Duration : 1h 45mn
    Overall bit rate : 12.4 Mbps
    Movie name : The Adjustment Bureau 2011 BDRip 720p GORESEWAGE
    Encoded date : UTC 2014-03-02 12:49:44
    Writing application : mkvmerge v6.1.0 (;Old Devil;) built on Mar 2 2013 14:32:37
    Writing library : libebml v1.3.0 libmatroska v1.4.0
    Attachment : Yes
    Video #1
    ID : 1
    Format : AVC
    Format/Info : Advanced Video Codec
    Format profile : High@L4.1
    Format settings, CABAC : Yes
    Format settings, ReFrames : 9 frames
    Codec ID : V_MPEG4/ISO/AVC
    Duration : 1h 45mn
    Bit rate : 6 747 Kbps
    Width : 1 280 pixels
    Height : 694 pixels
    Display aspect ratio : 1.85:1
    Frame rate mode : Constant
    Frame rate : 23.976 fps
    Color space : YUV
    Chroma subsampling : 4:2:0
    Bit depth : 8 bits
    Scan type : Progressive
    Bits/(Pixel*Frame) : 0.317
    Stream size : 4.81 GiB (52%)
    Title : The Adjustment Bureau 2011 BDRip 720p GORESEWAGE
    Writing library : x264 core 115 r1995 c1e60b9
    Encoding settings : cabac=1 / ref=9 / deblock=1:-3:-3 / analyse=0x3:0x113 / me=tesa / subme=10 / psy=1 / psy_rd=1.00:0.00 / mixed_ref=1 / me_range=32 / chroma_me=1 / trellis=2 / 8x8dct=1 / cqm=0 / deadzone=21,11 / fast_pskip=0 / chroma_qp_offset=-2 / threads=12 / sliced_threads=0 / nr=0 / decimate=1 / interlaced=0 / bluray_compat=0 / constrained_intra=0 / bframes=6 / b_pyramid=2 / b_adapt=2 / b_bias=0 / direct=3 / weightb=1 / open_gop=0 / weightp=2 / keyint=250 / keyint_min=23 / scenecut=40 / intra_refresh=0 / rc_lookahead=125 / rc=2pass / mbtree=1 / bitrate=6747 / ratetol=1.0 / qcomp=0.60 / qpmin=0 / qpmax=69 / qpstep=4 / cplxblur=20.0 / qblur=0.5 / ip_ratio=1.40 / aq=1:0.80
    Language : English
    Default : Yes
    Forced : No
    Audio #2
    ID : 2
    Format : DTS
    Format/Info : Digital Theater Systems
    Mode : 16
    Format settings, Endianness : Big
    Codec ID : A_DTS
    Duration : 1h 45mn
    Bit rate mode : Constant
    Bit rate : 768 Kbps
    Channel count : 6 channels
    Channel positions : Front: L C R, Side: L R, LFE
    Sampling rate : 48.0 KHz
    Bit depth : 24 bits
    Compression mode : Lossy
    Stream size : 581 MiB (6%)
    Title : Dub BD EUR
    Language : Russian
    Default : Yes
    Forced : No
    Audio #3
    ID : 3
    Format : DTS
    Format/Info : Digital Theater Systems
    Mode : 16
    Format settings, Endianness : Big
    Codec ID : A_DTS
    Duration : 1h 45mn
    Bit rate mode : Constant
    Bit rate : 1 509 Kbps
    Channel count : 6 channels
    Channel positions : Front: L C R, Side: L R, LFE
    Sampling rate : 48.0 KHz
    Bit depth : 24 bits
    Compression mode : Lossy
    Stream size : 1.12 GiB (12%)
    Title : AVO Юрий Сербин
    Language : Russian
    Default : No
    Forced : No
    Audio #4
    ID : 4
    Format : DTS
    Format/Info : Digital Theater Systems
    Mode : 16
    Format settings, Endianness : Big
    Codec ID : A_DTS
    Duration : 1h 45mn
    Bit rate mode : Constant
    Bit rate : 1 509 Kbps
    Channel count : 6 channels
    Channel positions : Front: L C R, Side: L R, LFE
    Sampling rate : 48.0 KHz
    Bit depth : 24 bits
    Compression mode : Lossy
    Stream size : 1.12 GiB (12%)
    Title : VO Вячеслав zamez
    Language : Russian
    Default : No
    Forced : No
    Audio #5
    ID : 5
    Format : DTS
    Format/Info : Digital Theater Systems
    Mode : 16
    Format settings, Endianness : Big
    Codec ID : A_DTS
    Duration : 1h 45mn
    Bit rate mode : Constant
    Bit rate : 1 509 Kbps
    Channel count : 6 channels
    Channel positions : Front: L C R, Side: L R, LFE
    Sampling rate : 48.0 KHz
    Bit depth : 24 bits
    Compression mode : Lossy
    Stream size : 1.12 GiB (12%)
    Title : Original
    Language : English
    Default : No
    Forced : No
    Audio #6
    ID : 6
    Format : AC-3
    Format/Info : Audio Coding 3
    Format profile : Dolby Digital
    Mode extension : CM (complete main)
    Format settings, Endianness : Big
    Codec ID : A_AC3
    Duration : 1h 45mn
    Bit rate mode : Constant
    Bit rate : 192 Kbps
    Channel count : 2 channels
    Channel positions : Front: L R
    Sampling rate : 48.0 KHz
    Bit depth : 16 bits
    Compression mode : Lossy
    Stream size : 145 MiB (2%)
    Title : Descriрtion
    Language : English
    Default : No
    Forced : No
    Audio #7
    ID : 7
    Format : AC-3
    Format/Info : Audio Coding 3
    Format profile : Dolby Digital
    Mode extension : CM (complete main)
    Format settings, Endianness : Big
    Codec ID : A_AC3
    Duration : 1h 45mn
    Bit rate mode : Constant
    Bit rate : 192 Kbps
    Channel count : 2 channels
    Channel positions : Front: L R
    Sampling rate : 48.0 KHz
    Bit depth : 16 bits
    Compression mode : Lossy
    Stream size : 145 MiB (2%)
    Title : Commentary by writer-director George Nolfi
    Language : English
    Default : No
    Forced : No
    Text #8
    ID : 8
    Format : UTF-8
    Codec ID : S_TEXT/UTF8
    Codec ID/Info : UTF-8 Plain Text
    Title : Forced
    Language : Russian
    Default : Yes
    Forced : No
    Text #9
    ID : 9
    Format : UTF-8
    Codec ID : S_TEXT/UTF8
    Codec ID/Info : UTF-8 Plain Text
    Title : Full Евгений Воронин
    Language : Russian
    Default : No
    Forced : No
    Text #10
    ID : 10
    Format : UTF-8
    Codec ID : S_TEXT/UTF8
    Codec ID/Info : UTF-8 Plain Text
    Title : Commentary by writer-director George Nolfi
    Language : Russian
    Default : No
    Forced : No
    Text #11
    ID : 11
    Format : UTF-8
    Codec ID : S_TEXT/UTF8
    Codec ID/Info : UTF-8 Plain Text
    Title : Forced
    Language : Ukrainian
    Default : No
    Forced : No
    Text #12
    ID : 12
    Format : UTF-8
    Codec ID : S_TEXT/UTF8
    Codec ID/Info : UTF-8 Plain Text
    Title : Full
    Language : Ukrainian
    Default : No
    Forced : No
    Text #13
    ID : 13
    Format : UTF-8
    Codec ID : S_TEXT/UTF8
    Codec ID/Info : UTF-8 Plain Text
    Title : Full
    Language : English
    Default : No
    Forced : No
    Text #14
    ID : 14
    Format : UTF-8
    Codec ID : S_TEXT/UTF8
    Codec ID/Info : UTF-8 Plain Text
    Title : SDH
    Language : English
    Default : No
    Forced : No
    Text #15
    ID : 15
    Format : UTF-8
    Codec ID : S_TEXT/UTF8
    Codec ID/Info : UTF-8 Plain Text
    Title : Commentary by writer-director George Nolfi
    Language : English
    Default : No
    Forced : No
    Text #16
    ID : 16
    Format : UTF-8
    Codec ID : S_TEXT/UTF8
    Codec ID/Info : UTF-8 Plain Text
    Title : Full
    Language : French
    Default : No
    Forced : No
    Text #17
    ID : 17
    Format : UTF-8
    Codec ID : S_TEXT/UTF8
    Codec ID/Info : UTF-8 Plain Text
    Title : Full
    Language : Spanish
    Default : No
    Forced : No
    Menu
    00:00:00.000 : :Chapter 01
    00:06:37.772 : :Chapter 02
    00:14:17.481 : :Chapter 03
    00:20:58.215 : :Chapter 04
    00:28:35.547 : :Chapter 05
    00:31:11.494 : :Chapter 06
    00:35:22.245 : :Chapter 07
    00:38:58.836 : :Chapter 08
    00:43:07.001 : :Chapter 09
    00:51:35.050 : :Chapter 10
    00:58:33.009 : :Chapter 11
    01:02:14.981 : :Chapter 12
    01:07:32.089 : :Chapter 13
    01:12:00.649 : :Chapter 14
    01:14:13.490 : :Chapter 15
    01:19:47.574 : :Chapter 16
    01:24:11.546 : :Chapter 17
    01:30:00.603 : :Chapter 18
    01:35:53.748 : :Chapter 19
    01:38:54.470 : :Chapter 20

    AddInfo

    * За дорогу №2 thx HDTracker Xerman13, Jiraya87, denis_mgn_1987, foxlight, zeleniydzhan, KpucTo161, Letyoha3, Role, -Джосс-, ZeRoNe, SavineX, carter64, shitman82, dunhill200, hulahup, v111o, Hattori Hanzo, ultrajeka, Brown15, Vimann.
    * За дорогу №3 thx Вячеслав zamez survive.
    * За сабы №2 thx Евгений Воронин.

    Размер скачиваемого торрента: 9.19 GB (9868173071 Bytes)

    Меняющие реальность / The Adjustment Bureau (2011) BDRip 720p от GORESEWAGE скачать через торрент бесплатно
    загрузка...
    Рейтинг →
     (голосов: 1, оценка 5/5, голосовать можно 1 раз )

    Другие торренты по теме:

  • Меняющие реальность / The Adjustment Bureau (2011) HDRip-AVC
  • Меняющие реальность / The Adjustment Bureau (2011) BDRip 1080p
  • Меняющие реальность / The Adjustment Bureau (2011) BDRip 720p от leonardo 59 Scarabey | Лицензия
  • Меняющие реальность / The Adjustment Bureau (2011) BDRemux 1080p от GORESEWAGE скачать через торрент бесплатно
  • Меняющие реальность / The Adjustment Bureau (2011) BDRip 1080p от GORESEWAGE
  • Меняющие реальность / The Adjustment Bureau (2011) HDRip | Гаврилов
  • Курс «Логическое мышление: Мысли, меняющие реальность» скачать через торрент бесплатно


    • Комментарии (0):

      Информация

      Информация

        Посетители, находящиеся в группе Гости, не могут оставлять комментарии в данной новости.

        ↓ Меню



        ↓ Опрос

        А Вы добавили сайт в закладки?
        Да
        Не


        Top 10 за месяц (Фильмы)