.
Авторизация | Регистрация
Хочешь лучшие торренты? Добавь свой email!
Добавить
» » Викинги / Vikings (2014) WEB-DLRip | BaibaKo скачать торрент бесплатно




    Викинги / Vikings (2014) WEB-DLRip | BaibaKo скачать торрент бесплатно

    Опубликовал: Админ | Дата: 27-02-2015, 11:10 | Просмотров: 344



    Русское название: Викинги
    Русское название в мировом прокате: Vikings
    Создали в: 2014
    Категория жанра: Историческая драма, исторические приключения, боевик, викинги
    Главный режиссер: Киаран Доннелли, Йохан Ренк, Кен Джиротти
    Актеры: Трэвис Фиммел, Клайв Стэнден, Кэтрин Уинник, Гэбриел Бирн, Джессалин Гилсиг, Густаф Скарсгард, Джефферсон Холл, Джордж Благден, Тадж Мерфи, Диармэйд Мурта

    Сюжет: История повествует о приключениях величайшего героя своего времени – Рагнара Лодброка. В сериале показан Рагнар со своим племенем братьев-викингов и его семьёй в процессе становления королём всех племён викингов. Рагнар – бесстрашный воин, и религиозный викинг, который объединяет все племена и распространяет среди них поклонение скандинавским богам. Согласно легенде, он – прямой потомок Одина, бога войны и воителей.

    Снималось в: Ирландия, Канада, Irish Film Board, Take 5 Productions, World 2000 Entertainment
    Время просмотра: 1 x 00:44:00
    Перевод текста: Профессиональный многоголосый - BaibaKo

    Качество фильма: WEB-DLRip
    Информация о видео: XviD, 1905 Кбит/с, 720x400
    Информация о звуке rus: AC3, 6 ch, 384 Кбит/с

    Список серий
    01. Братская война / Brother;s War
    Инфо
    Полное имя : E:Vikings.s02.tahiyVikings.s02.01.tahiy.avi
    Формат : AVI
    Формат/Информация : Audio Video Interleave
    Размер файла : 726 Мбайт
    Продолжительность : 44 м.
    Общий поток : 2298 Кбит/сек
    Название фильма : Vikings.tahiy
    Программа кодирования : VirtualDubMod 1.5.10.3 | www.virtualdub-fr.org || (build 2550/release)

    Видео
    Идентификатор : 0
    Формат : MPEG-4 Visual
    Профиль формата : Advanced Simple@L5
    Параметр BVOP формата : 1
    Параметр QPel формата : Нет
    Параметр GMC формата : Без точки перехода
    Параметр матрицы формата : Default (MPEG)
    Идентификатор кодека : XVID
    Идентификатор кодека/Подсказка : XviD
    Продолжительность : 44 м.
    Битрейт : 1905 Кбит/сек
    Ширина : 720 пикселей
    Высота : 400 пикселей
    Соотношение сторон : 16:9
    Частота кадров : 23,976 кадра/сек
    Цветовое пространство : YUV
    Субдискретизация насыщенности : 4:2:0
    Битовая глубина : 8 бит
    Тип развёртки : Прогрессивная
    Метод сжатия : С потерями
    Бит/(Пиксели*Кадры) : 0.276
    Размер потока : 601 Мбайт (83%)
    Библиотека кодирования : XviD 1.2.1 (UTC 2008-12-04)

    Аудио
    Идентификатор : 1
    Формат : AC-3
    Формат/Информация : Audio Coding 3
    Расширение режима : CM (complete main)
    Параметр Endianness формата : Big
    Идентификатор кодека : 2000
    Продолжительность : 44 м.
    Вид битрейта : Постоянный
    Битрейт : 384 Кбит/сек
    Каналы : 6 каналов
    Расположение каналов : Front: L C R, Side: L R, LFE
    Частота : 48,0 КГц
    Битовая глубина : 16 бит
    Метод сжатия : С потерями
    Размер потока : 121 Мбайт (17%)
    Выравнивание : Разделение по промежуткам
    Продолжительность промежутка : 42 мс. (1,00 видеокадр)
    Время предзагрузки промежутка : 500 мс.







    Раздача будет вестись путём добавления
    Раздача ведётся путём добавления новых серий; при каждом добавлении создаётся новый торрент. Чтобы начать докачку новой серии, пользователям необходимо сделать следующее:
    (1) остановить скачивание,
    (2) удалить старый торрент у себя из клиента (старые серии удалять не надо),
    (3) скачать новый торрент и запустить его у себя в клиенте вместо старого, при этом указать клиенту путь в старую папку куда и должно происходить скачивание новых серий.

    Ваш клиент при этом должен произвести хеширование (проверку) старой папки (если не производит сам - помогите ему сделать это), и будет докачивать только те серии которых у вас ещё нет. Старые серии при этом не удаляются, а продолжают раздаваться!

    Eсли вы уже удалили старые серии, то предотвратить повторную закачку старых серий можно, отжав галочку в соответствующих местах при запуске нового торрента. По возможности, желательно не удалять старые серии как можно дольше чтобы релизёр не столько продолжал раздавать старые серии, а смог сконцентрироваться на новых.
    Как докачать пропущенные файлы торрента В клиенте µTorrent

    Ссылка на ютуб
    Ссылка на DepositFiles
    Ссылка на клиент 2.2.1 При установке не обновляйте!!!


    1) Выделяем торрент одним нажатием левой кнопкой мыши.



    2) Заходим на вкладку Files (Файлы)



    3) И меняем нажатием правой кнопкой мыши приоритет на Normal (нормальный)



    Размер скачиваемого торрента: 725.54 MB (760780800 Bytes)

    Викинги / Vikings (2014) WEB-DLRip | BaibaKo торрент скачать бесплатно
    загрузка...
    Рейтинг →
     (голосов: 1, оценка 4/5, голосовать можно 1 раз )

    Другие торренты по теме:

  • Викинги / Outlander (2008) BDRip 1080p
  • Семенова Мария - Викинги (2007) МРЗ
  • Братья Викинги / Viking Brothers (2013) PC
  • OST - Викинги / Outlander (2009) MP3
  • Викинги / Vikings (2013) WEB-DLRip | Первый канал
  • Викинги / The Vikings (1958) HDTV 1080i от ClubTorrent | P2
  • OST - Викинги / Vikings (2013) MP3 скачать через торрент бесплатно
  • Веселая ферма. Викинги / Farm Frenzy. Vikings (2013) Android скачать через торрент бесплатно


    • Комментарии (0):

      Информация

      Информация

        Посетители, находящиеся в группе Гости, не могут оставлять комментарии в данной новости.

        ↓ Меню



        ↓ Опрос

        А Вы добавили сайт в закладки?
        Да
        Не


        Top 10 за месяц (Фильмы)