.
Авторизация | Регистрация
Хочешь лучшие торренты? Добавь свой email!
Добавить
» » Жизнь Адель / Blue is the Warmest Color / La vie dAdle - Chapitres 1 et 2 (2013) BDRip 1080p от GORESEWAGE | Line, L2, 2xL1 скачать торрент бесплатно




    Жизнь Адель / Blue is the Warmest Color / La vie dAdle - Chapitres 1 et 2 (2013) BDRip 1080p от GORESEWAGE | Line, L2, 2xL1 скачать торрент бесплатно

    Опубликовал: Админ | Дата: 27-02-2015, 11:10 | Просмотров: 302



    Жизнь Адель / Blue is the Warmest Color / La vie d;Ad?le - Chapitres 1 et 2

    Создали в: 2013
    Снималось в: Франция, Бельгия, Испания
    Категория жанра: драма, мелодрама, эротика
    Время просмотра: 03:00:08
    Перевод текста 1: Профессиональный (дублированный) Line
    Перевод текста 2: Любительский (двухголосый закадровый) GREEN TEA
    Перевод текста 3: Любительский (одноголосый закадровый) Алексей Матвеев (Doctor_Joker)
    Перевод текста 4: Любительский (одноголосый закадровый) Pashaup
    Оригинальная аудиодорожка: French
    Субтитры: Russian (Full Inkantatem), English (Full), Portuguese (Full), Vietnamese (Full Colored)
    Киностудия: Quat;sous Films, Wild Bunch, France 2 Cin?ma

    Главный режиссёр: Абделатиф Кешиш / Abdellatif Kechiche

    Актеры: Адель Экзаркопулос, Леа Сейду, Салим Кешьюш, Орельен Рекуан, Кэтрин Сали, Бенжамин Сиксу, Мона Валравенс, Альма Жодоровски, Жереми Лаэрт, Энн Лорье и др.

    Сюжет: 15-ти летняя Адель мечтает о вечной любви и встречает очаровательного парня, который тут же влюбляется в неё. Но неожиданно для неё самой, Адель начинает видеть странные сны с участием загадочной девушки с синими волосами, которую случайно встретила на улице. Юная Адель начинает понимать, что её манят не просто синие волосы, её привлекает сама незнакомка...
    Фильм основан на графическом романе Жюли Маро Синий - самый тёплый цвет. Кинотеатральной версией фильма продолжительностью около трёх часов Кешиш не ограничился и анонсировал финальный монтаж, который будет на 40 минут длиннее, также режиссёр не исключил съёмки сиквела.



    Sample

    Качество фильма: BDRip 1080p (HDMaNiAcS)
    Контейнер: MKV
    Информация о видео кодек: MPEG-4 AVC Video
    Информация о звуке кодек: DTS / AC3
    Информация о видео: MPEG-4 AVC Video / 14500 kbps / 1920x804p / 23,976 fps / 2.40:1 / High Profile 4.1
    Информация о звуке 1: Russian / AC3 / 2.0 / 48 kHz / 192 kbps / 16-bit | Dub Line
    Информация о звуке 2: Russian / DTS / 5.1 / 48 kHz / 1536 kbps / 24-bit | DVO GREEN TEA
    Информация о звуке 3: Russian / DTS / 5.1 / 48 kHz / 1536 kbps / 24-bit | VO Алексей Матвеев (Doctor_Joker)
    Информация о звуке 4: Russian / DTS / 5.1 / 48 kHz / 1536 kbps / 24-bit | VO Pashaup
    Информация о звуке 5: French / DTS / 5.1 / 48 kHz / 1536 kbps / 24-bit | Original
    Навигация по главам: да

    Screens

    MediaInfo
    C:/GORESEWAGE/Blue is the Warmest Color (La vie d;Ad?le - Chapitres 1 et 2) 2013 BDRip 1080p GORESEWAGE.mkv
    General
    Unique ID : 239305534991763776461961900437525302001 (0xB40891CF53F928BF99B58E29B7110AF1)
    Complete name : C:/GORESEWAGE/Blue is the Warmest Color (La vie d;Ad?le - Chapitres 1 et 2) 2013 BDRip 1080p GORESEWAGE.mkv
    Format : Matroska
    Format version : Version 4 / Version 2
    File size : 26.1 GiB
    Duration : 3h 0mn
    Overall bit rate : 20.7 Mbps
    Movie name : Blue is the Warmest Color (La vie d;Ad?le - Chapitres 1 et 2) 2013 BDRip 1080p GORESEWAGE
    Encoded date : UTC 2014-03-01 10:37:29
    Writing application : mkvmerge v6.1.0 (;Old Devil;) built on Mar 2 2013 14:32:37
    Writing library : libebml v1.3.0 libmatroska v1.4.0
    Attachment : Yes
    Video #1
    ID : 1
    Format : AVC
    Format/Info : Advanced Video Codec
    Format profile : High@L4.1
    Format settings, CABAC : Yes
    Format settings, ReFrames : 5 frames
    Codec ID : V_MPEG4/ISO/AVC
    Duration : 3h 0mn
    Bit rate : 14.5 Mbps
    Width : 1 920 pixels
    Height : 804 pixels
    Display aspect ratio : 2.40:1
    Frame rate mode : Constant
    Frame rate : 23.976 fps
    Color space : YUV
    Chroma subsampling : 4:2:0
    Bit depth : 8 bits
    Scan type : Progressive
    Bits/(Pixel*Frame) : 0.392
    Stream size : 17.7 GiB (68%)
    Title : Blue is the Warmest Color (La vie d;Ad?le - Chapitres 1 et 2) 2013 BDRip 1080p GORESEWAGE
    Writing library : x264 core 138 r2358kMod 9e941d1
    Encoding settings : cabac=1 / ref=5 / deblock=1:-3:-3 / analyse=0x3:0x113 / me=tesa / subme=11 / psy=1 / fade_compensate=0.00 / psy_rd=1.10:0.00 / mixed_ref=1 / me_range=32 / chroma_me=1 / trellis=2 / 8x8dct=1 / cqm=0 / deadzone=21,11 / fast_pskip=0 / chroma_qp_offset=-2 / threads=18 / lookahead_threads=3 / sliced_threads=0 / nr=0 / decimate=0 / interlaced=0 / bluray_compat=0 / constrained_intra=0 / bframes=8 / b_pyramid=2 / b_adapt=2 / b_bias=0 / direct=3 / weightb=1 / open_gop=0 / weightp=2 / keyint=250 / keyint_min=23 / scenecut=40 / intra_refresh=0 / rc_lookahead=40 / rc=2pass / mbtree=0 / bitrate=14500 / ratetol=1.0 / qcomp=0.60 / qpmin=10 / qpmax=69 / qpstep=4 / cplxblur=20.0 / qblur=0.5 / vbv_maxrate=40000 / vbv_bufsize=30000 / nal_hrd=none / ip_ratio=1.35 / pb_ratio=1.10 / aq=3:0.80
    Language : French
    Default : Yes
    Forced : No
    Audio #2
    ID : 2
    Format : AC-3
    Format/Info : Audio Coding 3
    Mode extension : CM (complete main)
    Format settings, Endianness : Big
    Codec ID : A_AC3
    Duration : 3h 0mn
    Bit rate mode : Constant
    Bit rate : 192 Kbps
    Channel count : 2 channels
    Channel positions : Front: L R
    Sampling rate : 48.0 KHz
    Bit depth : 16 bits
    Compression mode : Lossy
    Stream size : 247 MiB (1%)
    Title : Dub Line
    Language : Russian
    Default : Yes
    Forced : No
    Audio #3
    ID : 3
    Format : DTS
    Format/Info : Digital Theater Systems
    Mode : 16
    Format settings, Endianness : Big
    Codec ID : A_DTS
    Duration : 3h 0mn
    Bit rate mode : Constant
    Bit rate : 1 509 Kbps
    Channel count : 6 channels
    Channel positions : Front: L C R, Side: L R, LFE
    Sampling rate : 48.0 KHz
    Bit depth : 24 bits
    Compression mode : Lossy
    Stream size : 1.90 GiB (7%)
    Title : DVO GREEN TEA
    Language : Russian
    Default : No
    Forced : No
    Audio #4
    ID : 4
    Format : DTS
    Format/Info : Digital Theater Systems
    Mode : 16
    Format settings, Endianness : Big
    Codec ID : A_DTS
    Duration : 3h 0mn
    Bit rate mode : Constant
    Bit rate : 1 510 Kbps
    Channel count : 6 channels
    Channel positions : Front: L C R, Side: L R, LFE
    Sampling rate : 48.0 KHz
    Bit depth : 24 bits
    Compression mode : Lossy
    Stream size : 1.90 GiB (7%)
    Title : Алексей Матвеев (Doctor_Joker)
    Language : Russian
    Default : No
    Forced : No
    Audio #5
    ID : 5
    Format : DTS
    Format/Info : Digital Theater Systems
    Mode : 16
    Format settings, Endianness : Big
    Codec ID : A_DTS
    Duration : 3h 0mn
    Bit rate mode : Constant
    Bit rate : 1 509 Kbps
    Channel count : 6 channels
    Channel positions : Front: L C R, Side: L R, LFE
    Sampling rate : 48.0 KHz
    Bit depth : 24 bits
    Compression mode : Lossy
    Stream size : 1.90 GiB (7%)
    Title : VO Pashaup
    Language : Russian
    Default : No
    Forced : No
    Audio #6
    ID : 6
    Format : DTS
    Format/Info : Digital Theater Systems
    Mode : 16
    Format settings, Endianness : Big
    Codec ID : A_DTS
    Duration : 3h 0mn
    Bit rate mode : Constant
    Bit rate : 1 509 Kbps
    Channel count : 6 channels
    Channel positions : Front: L C R, Side: L R, LFE
    Sampling rate : 48.0 KHz
    Bit depth : 24 bits
    Compression mode : Lossy
    Stream size : 1.90 GiB (7%)
    Title : Original
    Language : French
    Default : No
    Forced : No
    Text #7
    ID : 7
    Format : UTF-8
    Codec ID : S_TEXT/UTF8
    Codec ID/Info : UTF-8 Plain Text
    Title : Full Inkantatem
    Language : Russian
    Default : No
    Forced : No
    Text #8
    ID : 8
    Format : UTF-8
    Codec ID : S_TEXT/UTF8
    Codec ID/Info : UTF-8 Plain Text
    Title : Full
    Language : English
    Default : No
    Forced : No
    Text #9
    ID : 9
    Format : UTF-8
    Codec ID : S_TEXT/UTF8
    Codec ID/Info : UTF-8 Plain Text
    Title : Full
    Language : Portuguese
    Default : No
    Forced : No
    Text #10
    ID : 10
    Format : UTF-8
    Codec ID : S_TEXT/UTF8
    Codec ID/Info : UTF-8 Plain Text
    Title : Full Colored
    Language : Vietnamese
    Default : No
    Forced : No
    Menu
    00:00:00.000 : en: 1. Emptiness
    00:08:04.234 : en: 2. Thomas
    00:11:50.585 : en: 3. Blue angel
    00:19:26.665 : en: 4. Faking everything
    00:28:52.981 : en: 5. A great day
    00:36:42.909 : en: 6. No gender
    00:43:00.578 : en: 7. Curious
    00:53:38.048 : en: 8. Defined by actions
    01:02:22.656 : en: 9. Phony friends
    01:08:34.736 : en:10. Preferences
    01:14:54.198 : en:11. First time
    01:21:46.652 : en:12. Happiness
    01:25:02.597 : en:13. To love
    01:31:55.343 : en:14. Eighteen
    01:34:52.270 : en:15. Fooling the family
    01:41:49.353 : en:16. Teacher
    01:44:57.166 : en:17. Out of place
    02:03:49.797 : en:18. Feeling alone
    02:10:48.924 : en:19. Tensions
    02:13:57.196 : en:20. Breakup
    02:21:30.691 : en:21. Adrift
    02:31:42.719 : en:22. Separate ways
    02:46:30.314 : en:23. Old and new

    AddInfo

    * За дорогу №2 thx HDTracker Sky71, timur, MeGUI, KpucTo161.
    * За дорогу №3 thx markinscor, будулайроманов, farivan, MrRose, jekyll_89. Работа со звуком: sashock86.
    * За дорогу №4 thx Pashaup shuriken331.
    * За русские сабы thx Inkantatem.

    *Русские сабы и дорога №4 содержат ненормативную лексику!

    Размер скачиваемого торрента: 26.08 GB (28001327115 Bytes)

    Жизнь Адель / Blue is the Warmest Color / La vie dAdle - Chapitres 1 et 2 (2013) BDRip 1080p от GORESEWAGE | Line, L2, 2xL1 торрент скачать бесплатно
    загрузка...
    Рейтинг →
     (голосов: 1, оценка 3/5, голосовать можно 1 раз )

    Другие торренты по теме:

  • Жизнь Адель / La vie dAdle - Chapitres 1 et 2 (2013) BDRip 720p | Чистый Звук скачать через торрент бесплатно
  • Жизнь Адель / La vie dAdle - Chapitres 1 et 2 (2013) HDRip | Чистый Звук скачать через торрент бесплатно
  • Жизнь Адель / La vie dAdle - Chapitres 1 et 2 (2013) HDRip от Scarabey | Чистый Звук скачать через торрент бесплатно
  • Жизнь Адель / Blue is the Warmest Color / La vie dAdle - Chapitres 1 et 2 (2013) BDRip 720p от GORESEWAGE | Line, L2, 2xL1
  • Жизнь Адель / Blue Is the Warmest Color / La vie dAdle - Chapitres 1 et 2 (2013) BDRip-AVC от HELLYWOOD | Лицензия
  • Жизнь Адель / La vie dAdle - Chapitres 1 et 2 (2013) HDRip | Лицензия
  • Жизнь Адель / La vie dAdle - Chapitres 1 et 2 (2013) HDRip от Scarabey | Лицензия
  • Жизнь Адель / La vie dAdele - Chapitres 1 et 2 / Blue Is the Warmest Color (2013) BDRip 1080p от CINEMANIA | D, L2, A скачать через торрент бесплатно


    • Комментарии (0):

      Информация

      Информация

        Посетители, находящиеся в группе Гости, не могут оставлять комментарии в данной новости.

        ↓ Меню



        ↓ Опрос

        А Вы добавили сайт в закладки?
        Да
        Не


        Top 10 за месяц (Фильмы)