.
Авторизация | Регистрация
Хочешь лучшие торренты? Добавь свой email!
Добавить
» » Пятый элемент / The Fifth Element (1997) BDRip-AVC | iPhone | D скачать торрент бесплатно




    Пятый элемент / The Fifth Element (1997) BDRip-AVC | iPhone | D скачать торрент бесплатно

    Опубликовал: Админ | Дата: 27-02-2015, 11:10 | Просмотров: 279



    Пятый элемент / The Fifth Element (1997) BDRip-AVC | iPhone | D

    Русское название: Пятый элемент
    Русское название в мировом прокате: The Fifth Element
    Создали в: 1997
    Категория жанра: фантастика, боевик, триллер, комедия
    Главный режиссер: Люк Бессон
    Актеры: Брюс Уиллис, Милла Йовович, Гари Олдман, Иэн Холм, Крис Такер, Люк Перри, Брайон Джеймс, Том ’Тайни’ Листер мл., Ли Эванс, Чарли Крид-Майлз

    Сюжет фильма:
    Каждые пять тысяч лет открываются двери между измерениями и темные силы стремятся нарушить существующую гармонию. Каждые пять тысяч лет Вселенной нужен герой, способный противостоять этому злу. XXIII век. Нью-йоркский таксист Корбен Даллас должен решить глобальную задачу - спасение всего рода человеческого.
    Зло в виде раскаленной массы, наделенной интеллектом, надвигается на Землю. Победить его можно, только лишь собрав воедино четыре элемента (они же стихии - земля, вода, воздух и огонь) и добавив к ним загадочный пятый элемент.



    Снималось в: Франция
    Киностудия: Sony Pictures
    Время просмотра: 02:06:22
    Перевод текста: Русский дублированный


    Файл
    Кодек для видео: H.264
    Качество фильма: BDRip-AVC 480p | iPhone
    Информация о видео: 640x362@852x362 (2.35:1) at 24.000 fps, AVC at 1700 kbps
    Информация о звуке:
    1: ААС 2.0 192 kbps - Русский дублированный (НТВ-Профит)
    2: ААС 2.0 150 kbps - Русский дублированный (Амальгама)
    3: ААС 2.0 150 kbps - Английский
    Субтитры: Русские, Английские

    MI

    General
    Complete name : C:CREATE480outThe Fifth Element.1997 (SD).m4v
    Format : MPEG-4
    Codec ID : M4V
    File size : 1.95 GiB
    Duration : 2h 6mn
    Overall bit rate mode : Variable
    Overall bit rate : 2 208 Kbps
    Movie name : Пятый элемент
    Performer : Luc Besson
    Genre : Action Adventure
    Recorded date : UTC 1997-06-06 07:00:00
    Encoded date : UTC 2014-03-01 18:08:45
    Tagged date : UTC 2014-03-01 18:25:51
    Copyright : © 1997 Gaumont. All Rights Reserved.
    Cover : Yes
    Comment : It Mu5t Be Found
    sonm : The Fifth Element
    desc : Каждые пять тысяч лет открываются двери между измерениями и темные силы стремятся нарушить существующую гармонию. Каждые пять тысяч лет Вселенной нужен герой, способный противостоять этому злу.
    ldes : Каждые пять тысяч лет открываются двери между измерениями и темные силы стремятся нарушить существующую гармонию. Каждые пять тысяч лет Вселенной нужен герой, способный противостоять этому злу. XXIII век. Нью-йоркский таксист Корбен Даллас должен решить глобальную задачу — спасение всего рода человеческого.Зло в виде раскаленной массы, наделенной интеллектом, надвигается на Землю. Победить его можно, только лишь собрав воедино четыре элемента (они же стихии — земля, вода, воздух и огонь) и добавив к ним загадочный пятый элемент.
    stik : 9
    rtng : 0
    cnID : 643486347
    xid : Apple:vendor_id:1997-2656
    iTunEXTC : mpaa|PG|200|

    Video #1
    ID : 1
    Format : AVC
    Format/Info : Advanced Video Codec
    Format profile : Baseline@L3.0
    Format settings, CABAC : No
    Format settings, ReFrames : 2 frames
    Codec ID : avc1
    Codec ID/Info : Advanced Video Coding
    Duration : 2h 6mn
    Bit rate : 1 700 Kbps
    Maximum bit rate : 7 267 Kbps
    Width : 640 pixels
    Height : 362 pixels
    Display aspect ratio : 2.35:1
    Frame rate mode : Constant
    Frame rate : 24.000 fps
    Color space : YUV
    Chroma subsampling : 4:2:0
    Bit depth : 8 bits
    Scan type : Progressive
    Bits/(Pixel*Frame) : 0.306
    Stream size : 1.50 GiB (77%)
    Title : The Fifth Element _1997_
    Writing library : x264 core 140 r2377 40 929f149 tMod 8-bit@4:2:0 X86_64
    Encoding settings : cabac=0 / ref=2 / deblock=1:-2:-2 / analyse=0x1:0x131 / me=umh / subme=7 / psy=1 / fade_compensate=1.00 / psy_rd=1.00:0.15 / mixed_ref=1 / me_range=32 / chroma_me=1 / trellis=2 / 8x8dct=0 / cqm=0 / deadzone=21,11 / fast_pskip=0 / chroma_qp_offset=-3 / threads=12 / lookahead_threads=2 / sliced_threads=0 / nr=0 / decimate=0 / interlaced=0 / bluray_compat=0 / constrained_intra=0 / fgo=0 / bframes=0 / weightp=0 / keyint=250 / keyint_min=23 / scenecut=40 / intra_refresh=0 / rc_lookahead=80 / rc=2pass / mbtree=1 / bitrate=1700 / ratetol=1.0 / qcomp=0.60 / qpmin=0:0:0 / qpmax=69:69:69 / qpstep=4 / cplxblur=20.0 / qblur=0.5 / vbv_maxrate=5000 / vbv_bufsize=5000 / nal_hrd=none / filler=0 / ip_ratio=1.35 / aq=4:0.90 / aq-sensitivity=10.00 / aq-factor=1.00:1.00:1.00 / aq2=0 / aq3=0
    Language : English
    Encoded date : UTC 2014-03-01 18:08:45
    Tagged date : UTC 2014-03-01 18:09:27
    Matrix coefficients : BT.709

    Video #2
    ID : 8
    Format : JPEG
    Codec ID : jpeg
    Duration : 2h 6mn
    Bit rate mode : Variable
    Bit rate : 720 bps
    Width : 640 pixels
    Height : 272 pixels
    Display aspect ratio : 2.35:1
    Frame rate mode : Variable
    Frame rate : 0.002 fps
    Minimum frame rate : 0.002 fps
    Maximum frame rate : 0.003 fps
    Color space : YUV
    Chroma subsampling : 4:2:0
    Bit depth : 8 bits
    Compression mode : Lossy
    Bits/(Pixel*Frame) : 2.068
    Stream size : 703 KiB (0%)
    Language : English
    Encoded date : UTC 2014-03-01 18:25:19
    Tagged date : UTC 2014-03-01 18:25:20

    Audio #1
    ID : 2
    Format : AAC
    Format/Info : Advanced Audio Codec
    Format profile : LC
    Codec ID : 40
    Duration : 2h 6mn
    Bit rate mode : Variable
    Bit rate : 196 Kbps
    Maximum bit rate : 213 Kbps
    Channel(s) : 2 channels
    Channel positions : Front: L R
    Sampling rate : 48.0 KHz
    Compression mode : Lossy
    Stream size : 177 MiB (9%)
    Title : Dub _HTB Profit_
    Language : Russian
    Encoded date : UTC 2014-03-01 18:09:17
    Tagged date : UTC 2014-03-01 18:09:27

    Audio #2
    ID : 3
    Format : AAC
    Format/Info : Advanced Audio Codec
    Format profile : LC
    Codec ID : 40
    Duration : 2h 6mn
    Bit rate mode : Variable
    Bit rate : 151 Kbps
    Maximum bit rate : 181 Kbps
    Channel(s) : 2 channels
    Channel positions : Front: L R
    Sampling rate : 48.0 KHz
    Compression mode : Lossy
    Stream size : 137 MiB (7%)
    Title : Dub _Amalgama_
    Language : Russian
    Encoded date : UTC 2014-03-01 18:00:15
    Tagged date : UTC 2014-03-01 18:09:27

    Audio #3
    ID : 4
    Format : AAC
    Format/Info : Advanced Audio Codec
    Format profile : LC
    Codec ID : 40
    Duration : 2h 6mn
    Bit rate mode : Variable
    Bit rate : 152 Kbps
    Maximum bit rate : 183 Kbps
    Channel(s) : 2 channels
    Channel positions : Front: L R
    Sampling rate : 48.0 KHz
    Compression mode : Lossy
    Stream size : 138 MiB (7%)
    Title : Original
    Language : English
    Encoded date : UTC 2014-03-01 18:05:41
    Tagged date : UTC 2014-03-01 18:09:27

    Text #1
    ID : 5
    Format : Timed Text
    Muxing mode : sbtl
    Codec ID : tx3g
    Duration : 2h 1mn
    Bit rate mode : Variable
    Bit rate : 81 bps
    Stream size : 71.9 KiB (0%)
    Title : Subtitle Russian
    Language : Russian
    Encoded date : UTC 2014-03-01 18:09:27
    Tagged date : UTC 2014-03-01 18:09:27

    Text #2
    ID : 6
    Format : Timed Text
    Muxing mode : sbtl
    Codec ID : tx3g
    Duration : 2h 1mn
    Bit rate mode : Variable
    Bit rate : 54 bps
    Stream size : 47.7 KiB (0%)
    Title : Subtitle English
    Language : English
    Encoded date : UTC 2014-03-01 18:09:27
    Tagged date : UTC 2014-03-01 18:09:27

    Menu
    ID : 7
    Codec ID : text
    Duration : 2h 6mn
    Language : English
    Encoded date : UTC 2014-03-01 18:11:08
    Tagged date : UTC 2014-03-01 18:11:08
    Bit rate mode : VBR
    iTunes Meta Tags

    Sort Name: The Fifth Element
    XID: Apple:vendor_id:1997-2656
    contentID: 643486347
    Copyright: © 1997 Gaumont. All Rights Reserved.
    Screenwriters: Люк Бессон, Роберт Марк Кэмен
    Producers: Патрис Леду, Джон А. Амикарелла, Айэйн Смит
    Director: Люк Бессон
    Cast: Брюс Уиллис, Милла Йовович, Гари Олдман, Иэн Холм, Крис Такер, Люк Перри, Брайон Джеймс, Том ’Тайни’ Листер мл., Ли Эванс, Чарли Крид-Майлз // Bruce Willis (Korben Dallas), Milla Jovovich (Leeloo), Gary Oldman (Jean-Baptiste Emmanuel Zorg), Ian Holm (Father Vito Cornelius), Chris Tucker (Ruby Rhod), Luke Perry (Billy), Brion James (General Munro), Tommy Lister (President Lindberg), Lee Evans (Fog), Charlie Creed-Miles (David), John Bluthal (Professor Pacoli), Mathieu Kassovitz (Mugger), Christopher Fairbank (Mactilburgh), Kim Chan (Mr. Kim), Tricky (Right Arm), Indra Ov? (VIP Stewardess), John Neville (General Staedert), Ma?wenn (Diva Plavalaguna)
    Studio: Sony Pictures
    Rating: 3
    Long Deion: Каждые пять тысяч лет открываются двери между измерениями и темные силы стремятся нарушить существующую гармонию. Каждые пять тысяч лет Вселенной нужен герой, способный противостоять этому злу. XXIII век. Нью-йоркский таксист Корбен Даллас должен решить глобальную задачу — спасение всего рода человеческого.Зло в виде раскаленной массы, наделенной интеллектом, надвигается на Землю. Победить его можно, только лишь собрав воедино четыре элемента (они же стихии — земля, вода, воздух и огонь) и добавив к ним загадочный пятый элемент.
    Deion: Каждые пять тысяч лет открываются двери между измерениями и темные силы стремятся нарушить существующую гармонию. Каждые пять тысяч лет Вселенной нужен герой, способный противостоять этому злу.
    Release Date: 1997-06-06T07:00:00Z
    Genre: Action Adventure
    Comments: It Mu5t Be Found
    Artist: Luc Besson
    Name: Пятый элемент
    x264

    x264 info: frame I:3477 Avg QP:19.30 size: 26706
    x264 info: frame P:178499 Avg QP:21.56 size: 8506
    x264 info: mb I I16..4: 31.4% 0.0% 68.6%
    x264 info: mb P I16..4: 1.2% 0.0% 2.1% P16..4: 53.3% 18.9% 10.1% 1.8% 0.8% skip:11.8%
    x264 info: coded y,uvDC,uvAC intra: 65.5% 78.7% 47.2% inter: 42.9% 44.9% 16.2%
    x264 info: i16 v,h,dc,p: 39% 13% 9% 39%
    x264 info: i4 v,h,dc,ddl,ddr,vr,hd,vl,hu: 28% 14% 15% 7% 8% 10% 6% 8% 5%
    x264 info: i8c dc,h,v,p: 49% 15% 27% 9%
    x264 info: ref P L0: 77.5% 22.5%
    x264 info: kb/s:1700.00




    Залил: gekka
    Размер скачиваемого торрента: 1.95 GB (2092749177 Bytes)

    Пятый элемент / The Fifth Element (1997) BDRip-AVC | iPhone | D торрент скачать бесплатно
    загрузка...
    Рейтинг →
     (голосов: 1, оценка 4/5, голосовать можно 1 раз )

    Другие торренты по теме:

  • Пятый элемент / The Fifth Element (1997) BDRip от Sanjar NeoJet | КПК
  • Пятый элемент / The Fifth Element (1997) BDRip-AVC от Leonardo and Scarabey | D
  • Пятый элемент / The Fifth Element (1997) BDRip 720p от NNNB | 60 fps | D, P, P2, A скачать через торрент бесплатно
  • Пятый элемент / The Fifth Element (1997) BDRip от MediaClub | КПК | US Remastered
  • Пятый элемент / The Fifth Element (1997) HDRip-AVC от waPBX | КПК
  • Пятый элемент / The Fifth Element (4K Remastered) / 1997 / 2 х ДБ, ПМ, ПД, АП (Гаврилов), СТ / BDRip (720p)
  • Пятый элемент / The Fifth Element (1997) BDRip 720p | D | Mastered in 4K
  • Пятый элемент / The Fifth Element (1997) HDRip от Scarabey | 4K Remastered | D


    • Комментарии (0):

      Информация

      Информация

        Посетители, находящиеся в группе Гости, не могут оставлять комментарии в данной новости.

        ↓ Меню



        ↓ Опрос

        А Вы добавили сайт в закладки?
        Да
        Не


        Top 10 за месяц (Фильмы)