.
Авторизация | Регистрация
Хочешь лучшие торренты? Добавь свой email!
Добавить
» » Волчонок (Оборотень) / Teen Wolf (2011-2012) WEB-DLRip от Generalfilm | КПК | Sony Sci-Fi скачать через торрент бесплатно




    Волчонок (Оборотень) / Teen Wolf (2011-2012) WEB-DLRip от Generalfilm | КПК | Sony Sci-Fi скачать через торрент бесплатно

    Опубликовал: Админ | Дата: 27-02-2015, 11:10 | Просмотров: 377



    Детально о кино
    Русское название: Волчонок (Оборотень)
    Русское название в мировом прокате: Teen Wolf
    Создали в: 2011-2012
    Категория жанра: Ужасы, триллер, драма, комедия
    Главный режиссер: Тим Эндрю, Рассел Малкэй, Тоби Уилкинс
    Актеры: Тайлер Пози, Дилан О’Брайэн, Кристал Рид, Колтон Хэйнс, Эдди Уильямс, Мелисса Понцио, Холлэнд Роден, Тайлер Хехлин, ДжейАр Борн, Линден Эшби

    Сюжет фильма:
    Скотт МакКолл, шестнадцатилетний подросток однажды ночью оказывается в лесу, где на него нападает и кусает большой таинственный зверь, напоминающий волка. Вскоре Скотт начинает замечать в себе некоторые изменения, такие как усиленный слух и сила, способность к быстрой регенерации и ускоренные рефлексы. С помощью своего лучшего друга Стайлза Стилински и загадочного оборотня Дерека Хэйла он должен научиться контролировать себя, чтобы суметь защитить свою семью, друзей и девушку Эллисон Арджент от Альфы, оборотня, который обратил его.



    Список серий:
    1 Сезон
    01. Пилот / Pilot
    02. Второй Шанс в нападении / Second Chance At First Line
    03. Заблуждение / Pack Mentality
    04. Волшебная пуля / Magic Bullet
    05. Беседа / The Tell
    06. Кардиомонитор / Heart Monitor
    07. Вечерняя школа / Night School
    08. Невменяемый / Lunatic
    09. Волчья отрава / Wolf;s Bane
    10. Со-капитан / Co-Captain
    11. Бал / Formality
    12. Нарушитель кодекса / Code Breaker

    2 Сезон
    01. Omega / Омега
    02. Shape Shifted / Неудачное обращение
    03. Ice Pick / Ледоруб
    04. Abomination / Мерзость
    05. Venomous / Ядовитый
    06. Frenemy / Друг и враг
    07. Restraint / Сдержанность
    08. Raving / Бред
    09. Party Guessed / Вечеринка Угадай, кто?
    10. Fury / Фурия
    11. Battlefield / Поле боя
    12. Master Plan / План хозяина

    Снималось в: США
    Киностудия: MGM Television, Music Television (MTV)
    Время просмотра: 24 x ~ 00:42:00
    Перевод текста: Профессиональный (многоголосый) Sony Sci-Fi

    Файл
    Тип видео: MP4
    Качество фильма: WEB-DLRip | КПК
    Информация о видео: MPEG-4 AVC (x264), 640x360, ~500 kbps, 23.976 fps
    Информация о звуке: AAC LC, 44.1 KHz, 2 ch, 128 Kbps
    Субтитры: Нет

    Семпл

    Скриншоты для ознакомления

    MI
    General
    Complete name : E:KinoVolchonok.AVC.WEB-DLRip.KPK.GeneralfilmVolchonok.S01.2011.AVC.WEB-DLRip.KPK.GeneralfilmVolchonok.s01e06.2011.AVC.WEB-DLRip.KPK.Generalfilm.mp4
    Format : MPEG-4
    Format profile : Base Media
    Codec ID : isom
    File size : 186 MiB
    Duration : 41mn 17s
    Overall bit rate mode : Variable
    Overall bit rate : 630 Kbps
    Encoded date : UTC 2014-02-10 14:04:15
    Tagged date : UTC 2014-02-10 14:04:15

    Video
    ID : 1
    Format : AVC
    Format/Info : Advanced Video Codec
    Format profile : Baseline@L4.1
    Format settings, CABAC : No
    Format settings, ReFrames : 6 frames
    Codec ID : avc1
    Codec ID/Info : Advanced Video Coding
    Duration : 41mn 17s
    Bit rate : 500 Kbps
    Maximum bit rate : 2 118 Kbps
    Width : 640 pixels
    Height : 360 pixels
    Display aspect ratio : 16:9
    Frame rate mode : Constant
    Frame rate : 23.976 fps
    Color space : YUV
    Chroma subsampling : 4:2:0
    Bit depth : 8 bits
    Scan type : Progressive
    Bits/(Pixel*Frame) : 0.091
    Stream size : 148 MiB (79%)
    Writing library : x264 core 119 r2106 07efeb4
    Encoding settings : cabac=0 / ref=6 / deblock=1:-1:-1 / analyse=0x1:0x111 / me=umh / subme=7 / psy=1 / psy_rd=1.00:0.00 / mixed_ref=0 / me_range=16 / chroma_me=1 / trellis=1 / 8x8dct=0 / cqm=0 / deadzone=21,11 / fast_pskip=0 / chroma_qp_offset=-2 / threads=3 / sliced_threads=0 / nr=0 / decimate=1 / interlaced=0 / bluray_compat=0 / constrained_intra=0 / bframes=0 / weightp=0 / keyint=250 / keyint_min=23 / scenecut=40 / intra_refresh=0 / rc_lookahead=60 / rc=2pass / mbtree=1 / bitrate=500 / ratetol=1.0 / qcomp=0.60 / qpmin=0 / qpmax=69 / qpstep=4 / cplxblur=20.0 / qblur=0.5 / ip_ratio=1.40 / aq=1:1.00
    Encoded date : UTC 2014-02-10 14:04:15
    Tagged date : UTC 2014-02-10 14:04:33

    Audio
    ID : 2
    Format : AAC
    Format/Info : Advanced Audio Codec
    Format profile : LC
    Codec ID : 40
    Duration : 41mn 17s
    Bit rate mode : Variable
    Bit rate : 128 Kbps
    Maximum bit rate : 170 Kbps
    Channel count : 2 channels
    Channel positions : Front: L R
    Sampling rate : 48.0 KHz
    Compression mode : Lossy
    Stream size : 37.8 MiB (20%)
    Encoded date : UTC 2014-02-10 14:04:25
    Tagged date : UTC 2014-02-10 14:04:33

    Релиз подготовил:
    Залил: toys_watch
    Размер скачиваемого торрента: 4.40 GB (4725634691 Bytes)

    Волчонок (Оборотень) / Teen Wolf (2011-2012) WEB-DLRip от Generalfilm | КПК | Sony Sci-Fi скачать через торрент бесплатно
    загрузка...
    Рейтинг →
     (голосов: 1, оценка 3/5, голосовать можно 1 раз )

    Другие торренты по теме:

  • Волчонок / Оборотень / Teen Wolf (2011-2014) WEB-DLRip | VO-production скачать через торрент бесплатно
  • Волчонок / Оборотень / Teen Wolf (2014) HDTVRip | Kerob скачать через торрент бесплатно
  • Волчонок / Оборотень / Teen Wolf (2011-2014) WEB-DLRip от Generalfilm | КПК | Sony Sci-Fi


    • Комментарии (0):

      Информация

      Информация

        Посетители, находящиеся в группе Гости, не могут оставлять комментарии в данной новости.

        ↓ Меню



        ↓ Опрос

        А Вы добавили сайт в закладки?
        Да
        Не


        Top 10 за месяц (Фильмы)