.
Авторизация | Регистрация
Хочешь лучшие торренты? Добавь свой email!
Добавить
» » Воровка книг / The Book Thief (2013) BDRemux 1080p | Лицензия скачать через торрент бесплатно




    Воровка книг / The Book Thief (2013) BDRemux 1080p | Лицензия скачать через торрент бесплатно

    Опубликовал: Админ | Дата: 27-02-2015, 11:10 | Просмотров: 237



    Детально о кино
    Русское название: Воровка книг
    Русское название в мировом прокате: The Book Thief
    Создали в: 2013
    Категория жанра: Драма, военный
    Снималось в: США, Германия, Fox 2000 Pictures, Studio Babelsberg
    Главный режиссер: Брайан Персивал
    Актеры: Софи Нелисс, Джеффри Раш, Эмили Уотсон, Роджер Аллам, Хайке Макатч, Джулиан Леманн, Готард Ланге, Райнер Рейнерс, Керстен Блок, Нико Лирш

    Сюжет фильма: Германия, начало 1939 года, канун Второй мировой войны. Смерть готовится начать свою жатву. Девятилетняя Лизель переезжает в Мюнхен к своим приемным родителям и с их помощью учится читать. С каждым днем чтение становится ее жизненной потребностью, и Лизель начинает воровать книги — единственную отраду ее жизни. Все, что она узнает из них, помогает ей понять события, происходящие вокруг нее — гонение на евреев, антифашистское движение, унижения и голод. Все это, в конце концов, сложится в ее собственную историю, историю ее жизни.



    Файл
    Качество фильма: Blu-Ray Remux (1080p)
    Информация о видео: MPEG-4 AVC, 24633 Кбит/с, 1920x1080
    Информация о звуке: Русский (DTS, 6 ch, 768 Кбит/с), английский (DTS-HD, 6 ch, 3696 Кбит/с), (AC3, 6 ch, 448 Кбит/с)
    Размер скачиваемого торрента: 26.95 ГБ
    Время просмотра: 02:11:00
    Перевод текста: Дублированный лицензия
    Субтитры: Русские, английские
    MI
    Общее
    Уникальный идентификатор : 194727319851651972415636918840666879070 (0x927F1E1CF372D31E92F8B800A64FF45E)
    Полное имя : C:The.Book.Thief.2013.BluRay.Remux.1080p.mkv
    Формат : Matroska
    Версия формата : Version 2
    Размер файла : 27,0 Гбайт
    Продолжительность : 2 ч. 10 м.
    Режим общего битрейта : Переменный
    Общий поток : 29,5 Мбит/сек
    Дата кодирования : UTC 2014-02-27 23:03:33
    Программа кодирования : mkvmerge v6.7.0 (;Back to the Ground;) 64bit built on Jan 8 2014 15:10:52
    Библиотека кодирования : libebml v1.3.0 libmatroska v1.4.1

    Видео
    Идентификатор : 1
    Формат : AVC
    Формат/Информация : Advanced Video Codec
    Профиль формата : High@L4.1
    Параметр CABAC формата : Да
    Параметр ReFrames формата : 4 кадра
    Идентификатор кодека : V_MPEG4/ISO/AVC
    Продолжительность : 2 ч. 10 м.
    Вид битрейта : Переменный
    Максимальный битрейт : 33,5 Мбит/сек
    Ширина : 1920 пикселей
    Высота : 1080 пикселей
    Соотношение сторон : 16:9
    Режим частоты кадров : Постоянный
    Частота кадров : 23,976 кадра/сек
    Цветовое пространство : YUV
    Субдискретизация насыщенности : 4:2:0
    Битовая глубина : 8 бит
    Тип развёртки : Прогрессивная
    Default : Да
    Forced : Нет

    Аудио #1
    Идентификатор : 2
    Формат : DTS
    Формат/Информация : Digital Theater Systems
    Режим : 16
    Параметр Endianness формата : Big
    Идентификатор кодека : A_DTS
    Продолжительность : 2 ч. 10 м.
    Вид битрейта : Постоянный
    Битрейт : 768 Кбит/сек
    Каналы : 6 каналов
    Расположение каналов : Front: L C R, Side: L R, LFE
    Частота : 48,0 КГц
    Битовая глубина : 24 бит
    Метод сжатия : С потерями
    Размер потока : 720 Мбайт (3%)
    Язык : Russian
    Default : Да
    Forced : Нет

    Аудио #2
    Идентификатор : 3
    Формат : DTS
    Формат/Информация : Digital Theater Systems
    Профиль формата : MA / Core
    Режим : 16
    Параметр Endianness формата : Big
    Идентификатор кодека : A_DTS
    Продолжительность : 2 ч. 10 м.
    Вид битрейта : Переменный
    Битрейт : Неизвестно / 1509 Кбит/сек
    Каналы : 6 каналов
    Расположение каналов : Front: L C R, Side: L R, LFE
    Частота : 48,0 КГц
    Битовая глубина : 24 бит
    Метод сжатия : Без потерь / Lossy
    Язык : English
    Default : Нет
    Forced : Нет

    Аудио #3
    Идентификатор : 4
    Формат : AC-3
    Формат/Информация : Audio Coding 3
    Расширение режима : CM (complete main)
    Параметр Endianness формата : Big
    Идентификатор кодека : A_AC3
    Продолжительность : 2 ч. 10 м.
    Вид битрейта : Постоянный
    Битрейт : 448 Кбит/сек
    Каналы : 6 каналов
    Расположение каналов : Front: L C R, Side: L R, LFE
    Частота : 48,0 КГц
    Битовая глубина : 16 бит
    Метод сжатия : С потерями
    Размер потока : 420 Мбайт (2%)
    Язык : English
    Default : Нет
    Forced : Нет

    Текст #1
    Идентификатор : 5
    Формат : UTF-8
    Идентификатор кодека : S_TEXT/UTF8
    Идентификатор кодека/Информация : UTF-8 Plain Text
    Язык : Russian
    Default : Нет
    Forced : Нет

    Текст #2
    Идентификатор : 6
    Формат : UTF-8
    Идентификатор кодека : S_TEXT/UTF8
    Идентификатор кодека/Информация : UTF-8 Plain Text
    Язык : English
    Default : Нет
    Forced : Нет

    Текст #3
    Идентификатор : 7
    Формат : UTF-8
    Идентификатор кодека : S_TEXT/UTF8
    Идентификатор кодека/Информация : UTF-8 Plain Text
    Язык : English
    Default : Нет
    Forced : Нет

    Меню
    00:00:00.000 : en:00:00:00.000
    00:03:50.230 : en:00:03:50.230
    00:07:58.061 : en:00:07:58.061
    00:10:27.126 : en:00:10:27.126
    00:13:42.405 : en:00:13:42.405
    00:17:54.949 : en:00:17:54.949
    00:20:17.591 : en:00:20:17.591
    00:23:01.380 : en:00:23:01.380
    00:24:57.746 : en:00:24:57.746
    00:26:58.158 : en:00:26:58.158
    00:30:54.811 : en:00:30:54.811
    00:34:01.164 : en:00:34:01.164
    00:39:21.859 : en:00:39:21.859
    00:43:00.870 : en:00:43:00.870
    00:45:09.999 : en:00:45:09.999
    00:50:59.056 : en:00:50:59.056
    00:52:18.761 : en:00:52:18.761
    00:54:55.709 : en:00:54:55.709
    00:59:04.624 : en:00:59:04.624
    01:02:16.232 : en:01:02:16.232
    01:05:42.564 : en:01:05:42.564
    01:08:20.513 : en:01:08:20.513
    01:12:41.983 : en:01:12:41.983
    01:18:14.857 : en:01:18:14.857
    01:23:50.025 : en:01:23:50.025
    01:27:59.399 : en:01:27:59.399
    01:30:46.274 : en:01:30:46.274
    01:36:25.405 : en:01:36:25.405
    01:40:48.584 : en:01:40:48.584
    01:43:54.812 : en:01:43:54.812
    01:47:24.104 : en:01:47:24.104
    01:49:38.405 : en:01:49:38.405
    01:54:24.274 : en:01:54:24.274
    02:02:10.949 : en:02:02:10.949
    02:03:13.386 : en:02:03:13.386
    02:05:21.514 : en:02:05:21.514


    Скриншоты для ознакомления


    Размер скачиваемого торрента: 26.95 GB (28941675900 Bytes)

    Воровка книг / The Book Thief (2013) BDRemux 1080p | Лицензия скачать через торрент бесплатно
    загрузка...
    Рейтинг →
     (голосов: 1, оценка 4/5, голосовать можно 1 раз )

    Другие торренты по теме:

  • OST - Воровка книг / The Book Thief (2013) MP3
  • Воровка книг / The Book Thief (2013) DVDScr | Звук с TS скачать через торрент бесплатно
  • Воровка книг / The Book Thief (2013) DVDScr | L1
  • Воровка книг / The Book Thief (2013) WEB-DLRip | Звук с TS
  • Воровка книг / The Book Thief (2013) BDRip-AVC от MediaClub | Лицензия скачать через торрент бесплатно
  • Воровка книг / The Book Thief (2013) BDRip 720p | Лицензия скачать через торрент бесплатно
  • Воровка книг / The Book Thief (2013) BDRip 1080p | Лицензия скачать через торрент бесплатно
  • Воровка книг / The Book Thief (2013) BDRip-AVC от ExKinoRay | Лицензия скачать через торрент бесплатно


    • Комментарии (0):

      Информация

      Информация

        Посетители, находящиеся в группе Гости, не могут оставлять комментарии в данной новости.

        ↓ Меню



        ↓ Опрос

        А Вы добавили сайт в закладки?
        Да
        Не


        Top 10 за месяц (Фильмы)