.
Авторизация | Регистрация
Хочешь лучшие торренты? Добавь свой email!
Добавить
» » Восставший из ада 4: Кровное родство / Hellraiser: Bloodline (1996) BDRip by msltel | P, A скачать через торрент бесплатно




    Восставший из ада 4: Кровное родство / Hellraiser: Bloodline (1996) BDRip by msltel | P, A скачать через торрент бесплатно

    Опубликовал: Админ | Дата: 27-02-2015, 11:10 | Просмотров: 234



    Русское название: Восставший из ада 4: Кровное родство
    Русское название в мировом прокате: Hellraiser: Bloodline
    Создали в: 1996
    Категория жанра: Ужасы, фантастика
    Снималось в: США, Dimension Films, Miramax Films, Trans Atlantic Entertainment
    Главный режиссер: Кевин Ягер, Алан Смити, Джо Чаппелль
    Актеры: Брюс Рэмсей, Валентина Варгас, Даг Брэдли, Шарлотта Чаттон, Адам Скотт, Ким Майерс, Мики Коттрелл, Луи Тюренн, Кортленд Мид, Луис Мустилльо

    Сюжет фильма: Жуткие события происходят в 2127-ом году на космической станции Минос. Доктор Мерчант, одержимый какими-то странными, безумными идеями, захватил станцию, чтобы провести в жизнь свои таинственные эксперименты. Доктора повязали, и он рассказал, как же он дошёл до жизни такой. И выяснилось, что причина безумия доктора в магическом кубике, изготовленном мастером игрушек Ле Маршаном ещё несколько столетий назад.

    Качество фильма: BDRip
    Информация о видео: XviD, 1898 Kбит/с, 720x400
    Информация о звуке: Русский (AC3, 6 ch, 384 Кбит/с), английский (AC3, 2 ch, 192 Кбит/с)
    Размер скачиваемого торрента: 1.70 ГБ
    Время просмотра: 01:24:44
    Перевод текста: Профессиональный многоголосый (West Video), авторский (Андрей Гаврилов)
    Субтитры: Русские, английские

    Исходник: Marchik60 (Кинозал)

    Сравнение с исходником



    MediaInfo
    Общее
    Полное имя : D:VideoVosstavshij iz ada 4.1996.XviD.BDRipVosstavshij iz ada 4.1996.eng.srt
    Формат : SubRip
    Размер файла : 46,6 Кбайт

    Текст
    Формат : SubRip
    Метод сжатия : Без потерь

    Общее
    Полное имя : D:VideoVosstavshij iz ada 4.1996.XviD.BDRipVosstavshij iz ada 4.1996.Original.eng.ac3
    Формат : AC-3
    Формат/Информация : Audio Coding 3
    Размер файла : 116 Мбайт
    Продолжительность : 1 ч. 24 м.
    Режим общего битрейта : Постоянный
    Общий поток : 192 Кбит/сек

    Аудио
    Формат : AC-3
    Формат/Информация : Audio Coding 3
    Расширение режима : CM (complete main)
    Параметр Endianness формата : Big
    Продолжительность : 1 ч. 24 м.
    Вид битрейта : Постоянный
    Битрейт : 192 Кбит/сек
    Каналы : 2 канала
    Расположение каналов : Front: L R
    Частота : 48,0 КГц
    Битовая глубина : 16 бит
    Метод сжатия : С потерями
    Размер потока : 116 Мбайт (100%)

    Общее
    Полное имя : D:VideoVosstavshij iz ada 4.1996.XviD.BDRipVosstavshij iz ada 4.1996.rus.srt
    Формат : SubRip
    Размер файла : 49,8 Кбайт

    Текст
    Формат : SubRip
    Метод сжатия : Без потерь

    Общее
    Полное имя : D:VideoVosstavshij iz ada 4.1996.XviD.BDRipVosstavshij iz ada 4.1996.XviD.BDRip.avi
    Формат : AVI
    Формат/Информация : Audio Video Interleave
    Размер файла : 1,59 Гбайт
    Продолжительность : 1 ч. 24 м.
    Общий поток : 2680 Кбит/сек
    Программа кодирования : VirtualDubMod 1.5.10.2 (build 2540/release)
    Библиотека кодирования : VirtualDubMod build 2540/release

    Видео
    Идентификатор : 0
    Формат : MPEG-4 Visual
    Профиль формата : Advanced Simple@L5
    Параметр BVOP формата : 1
    Параметр QPel формата : Нет
    Параметр GMC формата : Без точки перехода
    Параметр матрицы формата : Default (H.263)
    Режим смешивания : Сжатый битовый поток
    Идентификатор кодека : XVID
    Идентификатор кодека/Подсказка : XviD
    Продолжительность : 1 ч. 24 м.
    Битрейт : 1898 Кбит/сек
    Ширина : 720 пикселей
    Высота : 400 пикселей
    Соотношение сторон : 16:9
    Частота кадров : 23,976 кадра/сек
    Цветовое пространство : YUV
    Субдискретизация насыщенности : 4:2:0
    Битовая глубина : 8 бит
    Тип развёртки : Прогрессивная
    Метод сжатия : С потерями
    Бит/(Пиксели*Кадры) : 0.275
    Размер потока : 1,12 Гбайт (71%)
    Библиотека кодирования : XviD 1.2.1 (UTC 2008-12-04)

    Аудио #1
    Идентификатор : 1
    Формат : AC-3
    Формат/Информация : Audio Coding 3
    Расширение режима : CM (complete main)
    Параметр Endianness формата : Big
    Идентификатор кодека : 2000
    Продолжительность : 1 ч. 24 м.
    Вид битрейта : Постоянный
    Битрейт : 384 Кбит/сек
    Каналы : 6 каналов
    Расположение каналов : Front: L C R, Side: L R, LFE
    Частота : 48,0 КГц
    Битовая глубина : 16 бит
    Метод сжатия : С потерями
    Размер потока : 233 Мбайт (14%)
    Выравнивание : Разделение по промежуткам
    Продолжительность промежутка : 42 мс. (1,00 видеокадр)
    Время предзагрузки промежутка : 500 мс.

    Аудио #2
    Идентификатор : 2
    Формат : AC-3
    Формат/Информация : Audio Coding 3
    Расширение режима : CM (complete main)
    Параметр Endianness формата : Big
    Идентификатор кодека : 2000
    Продолжительность : 1 ч. 24 м.
    Вид битрейта : Постоянный
    Битрейт : 384 Кбит/сек
    Каналы : 6 каналов
    Расположение каналов : Front: L C R, Side: L R, LFE
    Частота : 48,0 КГц
    Битовая глубина : 16 бит
    Метод сжатия : С потерями
    Размер потока : 233 Мбайт (14%)
    Выравнивание : Разделение по промежуткам
    Продолжительность промежутка : 42 мс. (1,00 видеокадр)
    Время предзагрузки промежутка : 500 мс.
    Скриншоты для ознакомления



    Залил: msltel
    Размер скачиваемого торрента: 1.70 GB (1825714056 Bytes)

    Восставший из ада 4: Кровное родство / Hellraiser: Bloodline (1996) BDRip by msltel | P, A скачать через торрент бесплатно
    загрузка...
    Рейтинг →
     (голосов: 1, оценка 3/5, голосовать можно 1 раз )

    Другие торренты по теме:

  • Восставший из ада 3: Ад на Земле / Hellraiser III: Hell on Earth (1992) BDRip
  • Восставший из ада 3: Ад на Земле / Hellraiser III: Hell on Earth (1992) BDRemux 1080p скачать через торрент бесплатно
  • Восставший из ада 4: Кровное родство / Hellraiser: Bloodline (1996) BDRip-AVC | P, A скачать через торрент бесплатно
  • Восставший из ада 3: Ад на Земле / Hellraiser III: Hell on Earth (1992) BDRip-AVC | P, A скачать через торрент бесплатно
  • Восставший из ада 2 / Hellbound: Hellraiser 2 (1988) BDRip-AVC | P, A скачать через торрент бесплатно
  • Восставший из ада / Hellraiser (1987) BDRip-AVC | P, A скачать через торрент бесплатно
  • Восставший из ада 2 / Hellbound: Hellraiser II / (1988) BDRip by msltel | P, P2, A
  • Восставший из ада 2 / Hellbound: Hellraiser II / (1988) BDRip 720p by msltel | P, P2, A


    • Комментарии (0):

      Информация

      Информация

        Посетители, находящиеся в группе Гости, не могут оставлять комментарии в данной новости.

        ↓ Меню



        ↓ Опрос

        А Вы добавили сайт в закладки?
        Да
        Не


        Top 10 за месяц (Фильмы)