.
Авторизация | Регистрация
Хочешь лучшие торренты? Добавь свой email!
Добавить
» » Пуля / Bullet (2014) BDRip 720p от GORESEWAGE | L1 скачать через торрент бесплатно




    Пуля / Bullet (2014) BDRip 720p от GORESEWAGE | L1 скачать через торрент бесплатно

    Опубликовал: Админ | Дата: 27-02-2015, 11:10 | Просмотров: 238



    Пуля / Bullet

    Создали в: 2014
    Снималось в: США
    Категория жанра: боевик, триллер, криминал
    Время просмотра: 01:27:16
    Озвучка: Одноголосый закадровый qwerty
    Субтитры: English
    Киностудия: Giant Ape Media, SC Films International

    Главный режиссёр: Ник Лион / Nick Lyon

    Актеры: Дэнни Трехо, Торстен Фогс, Юлия Дице, Джонатан Бэнкс, Кайл Вильяловос, Ив Мауро, Шери ДеЯнг, Элизабет Гэст, Элисон Болл, Бланка Бланко, Камилль Солари, Тара Ханнивел, Анджела Девон, Эрик Блоссом, Джералд Уэбб, Тинсел Кори, Эрик Этебари и др.

    Сюжет: Пуля - это прозвище бескомпромиссного и жестокого полицейского, для которого борьба с преступностью является смыслом его жизни. В один ужасный день мафия похищает его внука, сама того не понимая какие неприятности на себя навлекая. Пуля берёт закон в свои руки и начинает вершить правосудие без суда и следствия.



    Sample

    Качество фильма: BDRip 720p
    Контейнер: MKV
    Информация о видео кодек: MPEG-4 AVC Video
    Информация о звуке кодек: DTS / AC3
    Информация о видео: MPEG-4 AVC Video / 6726 kbps / 1280x584p / 23,976 fps / 2.35:1 / High Profile 4.1
    Информация о звуке 1: Russian / DTS / 5.1 / 48 kHz / 1536 kbps / 24-bit / VO qwerty
    Информация о звуке 2: English / DTS / 5.1 / 48 kHz / 1536 kbps / 24-bit / Original
    Навигация по главам: да

    Screens

    MediaInfo
    C:/GORESEWAGE/Bullet 2014 BDRip 720p GORESEWAGE.mkv
    General
    Unique ID : 170793526495106483182811589215245623384 (0x807DA2FEAB49F14E8FBC62362938E058)
    Complete name : C:/GORESEWAGE/Bullet 2014 BDRip 720p GORESEWAGE.mkv
    Format : Matroska
    Format version : Version 4 / Version 2
    File size : 5.94 GiB
    Duration : 1h 27mn
    Overall bit rate : 9 743 Kbps
    Movie name : Bullet 2014 BDRip 720p GORESEWAGE
    Encoded date : UTC 2014-02-28 13:39:13
    Writing application : mkvmerge v6.1.0 (;Old Devil;) built on Mar 2 2013 14:32:37
    Writing library : libebml v1.3.0 libmatroska v1.4.0
    Attachment : Yes
    Video #1
    ID : 1
    Format : AVC
    Format/Info : Advanced Video Codec
    Format profile : High@L4.1
    Format settings, CABAC : Yes
    Format settings, ReFrames : 11 frames
    Codec ID : V_MPEG4/ISO/AVC
    Duration : 1h 27mn
    Bit rate : 6 726 Kbps
    Width : 1 280 pixels
    Height : 584 pixels
    Display aspect ratio : 2.2:1
    Frame rate mode : Constant
    Frame rate : 23.976 fps
    Color space : YUV
    Chroma subsampling : 4:2:0
    Bit depth : 8 bits
    Scan type : Progressive
    Bits/(Pixel*Frame) : 0.375
    Stream size : 3.98 GiB (67%)
    Title : Bullet 2014 BDRip 720p GORESEWAGE
    Writing library : x264 core 133 r2334 a3ac64b
    Encoding settings : cabac=1 / ref=11 / deblock=1:-3:-3 / analyse=0x3:0x113 / me=tesa / subme=10 / psy=1 / psy_rd=1.10:0.01 / mixed_ref=1 / me_range=48 / chroma_me=1 / trellis=2 / 8x8dct=1 / cqm=0 / deadzone=21,11 / fast_pskip=0 / chroma_qp_offset=-5 / threads=12 / lookahead_threads=2 / sliced_threads=0 / nr=0 / decimate=0 / interlaced=0 / bluray_compat=0 / constrained_intra=0 / bframes=8 / b_pyramid=2 / b_adapt=2 / b_bias=0 / direct=3 / weightb=1 / open_gop=0 / weightp=2 / keyint=250 / keyint_min=23 / scenecut=40 / intra_refresh=0 / rc=2pass / mbtree=0 / bitrate=6726 / ratetol=1.0 / qcomp=0.65 / qpmin=0 / qpmax=69 / qpstep=4 / cplxblur=20.0 / qblur=0.5 / ip_ratio=1.20 / pb_ratio=1.30 / aq=1:0.85
    Language : English
    Default : Yes
    Forced : No
    Audio #2
    ID : 2
    Format : DTS
    Format/Info : Digital Theater Systems
    Mode : 16
    Format settings, Endianness : Big
    Codec ID : A_DTS
    Duration : 1h 27mn
    Bit rate mode : Constant
    Bit rate : 1 509 Kbps
    Channel count : 6 channels
    Channel positions : Front: L C R, Side: L R, LFE
    Sampling rate : 48.0 KHz
    Bit depth : 24 bits
    Compression mode : Lossy
    Stream size : 942 MiB (15%)
    Title : VO qwerty
    Language : Russian
    Default : Yes
    Forced : No
    Audio #3
    ID : 3
    Format : DTS
    Format/Info : Digital Theater Systems
    Mode : 16
    Format settings, Endianness : Big
    Codec ID : A_DTS
    Duration : 1h 27mn
    Bit rate mode : Constant
    Bit rate : 1 510 Kbps
    Channel count : 6 channels
    Channel positions : Front: L C R, Side: L R, LFE
    Sampling rate : 48.0 KHz
    Bit depth : 24 bits
    Compression mode : Lossy
    Stream size : 942 MiB (15%)
    Title : Original
    Language : English
    Default : No
    Forced : No
    Text #4
    ID : 4
    Format : UTF-8
    Codec ID : S_TEXT/UTF8
    Codec ID/Info : UTF-8 Plain Text
    Title : Full
    Language : English
    Default : No
    Forced : No
    Menu
    00:00:00.000 : :Chapter 01
    00:06:15.625 : :Chapter 02
    00:11:31.524 : :Chapter 03
    00:14:13.602 : :Chapter 04
    00:17:44.646 : :Chapter 05
    00:22:35.520 : :Chapter 06
    00:27:37.656 : :Chapter 07
    00:32:33.117 : :Chapter 08
    00:38:37.148 : :Chapter 09
    00:45:01.657 : :Chapter 10
    00:50:12.092 : :Chapter 11
    00:53:54.522 : :Chapter 12
    00:58:18.453 : :Chapter 13
    01:02:21.738 : :Chapter 14
    01:06:54.135 : :Chapter 15
    01:11:02.258 : :Chapter 16
    01:15:43.664 : :Chapter 17
    01:21:14.035 : :Chapter 18

    Размер скачиваемого торрента: 5.94 GB (6377786612 Bytes)

    Пуля / Bullet (2014) BDRip 720p от GORESEWAGE | L1 скачать через торрент бесплатно
    загрузка...
    Рейтинг →
     (голосов: 1, оценка 4/5, голосовать можно 1 раз )

    Другие торренты по теме:

  • Пуля в рожу / Пуля в лицо / Bullet in the Face (2012) HDRip | L2 скачать через торрент бесплатно
  • Пуля для генерала (Золотая пуля, Эль Чунчо, кто его знает) / A Bullet for the General / 1966 / 2 x ДБ, 4 х ПМ, ПО, СТ / Blu-Ray (1080p)
  • Тэцуо 3: Человек-пуля / Tetsuo III: The Bullet Man (2009) BDRip | L1
  • Пуля исчезает / The Bullet Vanishes / Xiao shi de zi dan (2012) HDRip-AVC от BTT-TEAM и STEPonee
  • Пуля для генерала / El chuncho, quien sabe (1966) BDRip-AVC от Rulya74
  • Ария Алая Пуля / Hidan no Aria (2011) HDRip от Torrent-Xzona | L1,L2
  • Пуля в рожу / Bullet in the face (2012) HDTVRip | L2
  • Серебряная пуля / Silver Bullet (1985) HDTVRip 720p | P2, A


    • Комментарии (0):

      Информация

      Информация

        Посетители, находящиеся в группе Гости, не могут оставлять комментарии в данной новости.

        ↓ Меню



        ↓ Опрос

        А Вы добавили сайт в закладки?
        Да
        Не


        Top 10 за месяц (Фильмы)