.
Авторизация | Регистрация
Хочешь лучшие торренты? Добавь свой email!
Добавить
» » Я, Франкенштейн / I, Frankenstein (2014) DVDRip от New-Team | D | лицензия скачать через торрент бесплатно




    Я, Франкенштейн / I, Frankenstein (2014) DVDRip от New-Team | D | лицензия скачать через торрент бесплатно

    Опубликовал: Админ | Дата: 27-02-2015, 11:10 | Просмотров: 248

    In the battle between good and evil, an immortal holds the key



    Снималось в: США, Австралия / Hopscotch Features, Lakeshore Entertainment

    Категория жанра: фэнтези, боевик, приключения
    Создали в: 2014
    Время просмотра: 01:29:15
    Перевод текста: Дублированный
    Субтитры подготовлены: нет
    Оригинальная аудиодорожка: нет

    Главный режиссер: Стюарт Битти / Stuart Beattie

    Актеры: Аарон Экхарт, Ивонн Страховски, Миранда Отто, Билл Найи, Джай Кортни, Сократис Отто, Аден Янг, Кэйтлин Стэйси, Махеш Джаду, Стив Музакис...

    Роли дублировали: Радик Мухаметзянов, Валерий Сторожик, Илья Исаев, Илья Хвостиков, Иван Жарков...

    Сюжет: Он — монстр. Он — двухсотлетний плод безумной фантазии своего создателя. Он — легенда. Мир, в котором он живет, населен древними горгульями и бессмертными демонами, которые сражаются за обладание человечеством. Величественные соборы скрывают огромные арсеналы, за дверьми научных лабораторий проводятся эксперименты по воскрешению мертвых. Война двух кланов могущественных существ достигает своего пика. И только он, Адам, монстр Франкенштейна, в силах ее остановить.



    Качество фильма: DVDRip / DVD5
    Тип видео: AVI

    Информация о видео: 720x304 (2.35:1), 25.000 fps, XViD ~ 1039 kbps avg, 0.190 bit/pixel
    Информация о звуке: 48 kHz, MP3, 2 ch, 128 kbps, русский

    Раздача от:
    MediaInfo

    Общее
    Полное имя : Ya.Frankenshteyn.2014.D.DVDRip_New-Team_by_avproh.avi
    Формат : AVI
    Формат/Информация : Audio Video Interleave
    Размер файла : 751 Мбайт
    Продолжительность : 1 ч. 29 м.
    Общий поток : 1176 Кбит/сек
    Программа кодирования : VirtualDubMod 1.5.10.3 | www.virtualdub-fr.org || (build 2550/release)
    Библиотека кодирования : VirtualDubMod build 2550/release

    Видео
    Идентификатор : 0
    Формат : MPEG-4 Visual
    Профиль формата : Advanced Simple@L5
    Параметр BVOP формата : 1
    Параметр QPel формата : Нет
    Параметр GMC формата : Без точки перехода
    Параметр матрицы формата : Выборочная
    Идентификатор кодека : XVID
    Идентификатор кодека/Подсказка : XviD
    Продолжительность : 1 ч. 29 м.
    Битрейт : 1039 Кбит/сек
    Ширина : 720 пикселей
    Высота : 304 пикселя
    Соотношение сторон : 2,35:1
    Частота кадров : 25,000 кадров/сек
    Цветовое пространство : YUV
    Субдискретизация насыщенности : 4:2:0
    Битовая глубина : 8 бит
    Тип развёртки : Прогрессивная
    Метод сжатия : С потерями
    Бит/(Пиксели*Кадры) : 0.190
    Размер потока : 663 Мбайт (88%)
    Библиотека кодирования : XviD 73

    Аудио
    Идентификатор : 1
    Формат : MPEG Audio
    Версия формата : Version 1
    Профиль формата : Layer 3
    Идентификатор кодека : 55
    Идентификатор кодека/Подсказка : MP3
    Продолжительность : 1 ч. 29 м.
    Вид битрейта : Постоянный
    Битрейт : 128 Кбит/сек
    Каналы : 2 канала
    Частота : 48,0 КГц
    Метод сжатия : С потерями
    Размер потока : 81,7 Мбайт (11%)
    Выравнивание : Соединение по промежуткам
    Продолжительность промежутка : 40 мс. (1,00 видеокадр)
    Время предзагрузки промежутка : 504 мс.

    Скриншоты для ознакомления:



    Резервные скриншоты:



    Залил: avproh
    Размер скачиваемого торрента: 751.01 MB (787490816 Bytes)

    Я, Франкенштейн / I, Frankenstein (2014) DVDRip от New-Team | D | лицензия скачать через торрент бесплатно
    загрузка...
    Рейтинг →
     (голосов: 1, оценка 3/5, голосовать можно 1 раз )

    Другие торренты по теме:

  • Я, Франкенштейн / I, Frankenstein (2014) HD 1080p | L1 | Трейлер скачать через торрент бесплатно
  • Я, Франкенштейн (2014) скачать через торрент бесплатно
  • OST - I, Frankenstein / Я, Франкенштейн (2014) MP3 скачать через торрент бесплатно
  • Я, Франкенштейн / I, Frankenstein (2014) CAMRip скачать через торрент бесплатно
  • Я, Франкенштейн I, Frankenstein (2013) MP3
  • Я, Франкенштейн / I, Frankenstein (2014) CAMRip*PROPER*
  • Я, Франкенштейн / I, Frankenstein (2014) CAMRip*PROPER* | L1 скачать через торрент бесплатно
  • Я, Франкенштейн / I, Frankenstein (2014) BDRip | Лицензия скачать через торрент бесплатно


    • Комментарии (0):

      Информация

      Информация

        Посетители, находящиеся в группе Гости, не могут оставлять комментарии в данной новости.

        ↓ Меню



        ↓ Опрос

        А Вы добавили сайт в закладки?
        Да
        Не


        Top 10 за месяц (Фильмы)