.
Авторизация | Регистрация
Хочешь лучшие торренты? Добавь свой email!
Добавить
» » Доктор Блейк / The Doctor Blake Mysteries (2013) WEB-DLRip скачать торрент бесплатно




    Доктор Блейк / The Doctor Blake Mysteries (2013) WEB-DLRip скачать торрент бесплатно

    Опубликовал: Админ | Дата: 27-02-2015, 11:10 | Просмотров: 373



    Детально о кино
    Русское название: Доктор Блейк
    Русское название в мировом прокате: The Doctor Blake Mysteries
    Создали в: 2013
    Категория жанра: детектив
    Главный режиссер: Йен Бэрри, Эндрю Проуз, Деклан Имис
    Актеры: Крейг МакЛоклен, Надин Гарнер, Кейт Вульф, Джоэль Тобек, Рик Дональд, Чарльз Казинс, Джон Вуд, Тим Поттер, Дэвид Уайтели, Сара Глисон

    Сюжет фильма:
    Доктор Люсьен Блейк покинул родной городок Балларат ещё молодым. Сейчас он возвращается в него, чтобы унаследовать медицинскую практику своего упокоившегося отца с вызовами на места преступления. В 1959-ом году богатств времён золотой лихорадки, которой он обязан своей роскошной архитектурой, в городе давно нет, но тайны, убийства и обман, остались ещё со времён его былой славы.


    Официальный сайт

    Снималось в: Австралия
    Киностудия: ABC Television
    Время просмотра: ~00:55:00 серия
    Перевод текста: Профессиональный (многоголосый закадровый)- (DreamRecords)

    Файл
    Кодек для видео: XviD / MP3
    Качество фильма: WEB-DLRip
    Информация о видео: 720x400. 25 fps, 1 292 Kbps, 0.179 Bits/Pixel
    Информация о звуке: 192 Кб/сек 48 kHz, MPEG Layer 3, 2 ch

    Скриншоты для ознакомления
    Screenshots
    MediaInfo
    General
    Complete name : /Доктор Блейк (2 сезон любимого сериала)/The.Doctor.Blake.Mysteries.S02E01 - DreamRecords.avi
    Format : AVI
    Format/Info : Audio Video Interleave
    File size : 606 MiB
    Duration : 56mn 41s
    Overall bit rate : 1 494 Kbps
    Writing application : VirtualDubModRus 1.5.10.2 (build 2542/release)
    Writing library : VirtualDubMod build 2542/release

    Video
    ID : 0
    Format : MPEG-4 Visual
    Format profile : Advanced Simple@L5
    Format settings, BVOP : 1
    Format settings, QPel : No
    Format settings, GMC : No warppoints
    Format settings, Matrix : Default (MPEG)
    Codec ID : XVID
    Codec ID/Hint : XviD
    Duration : 56mn 41s
    Bit rate : 1 292 Kbps
    Width : 720 pixels
    Height : 400 pixels
    Display aspect ratio : 16:9
    Frame rate : 25.000 fps
    Color space : YUV
    Chroma subsampling : 4:2:0
    Bit depth : 8 bits
    Scan type : Progressive
    Compression mode : Lossy
    Bits/(Pixel*Frame) : 0.179
    Stream size : 524 MiB (86%)
    Writing library : XviD 64

    Audio
    ID : 1
    Format : MPEG Audio
    Format version : Version 1
    Format profile : Layer 3
    Mode : Joint stereo
    Codec ID : 55
    Codec ID/Hint : MP3
    Duration : 56mn 41s
    Bit rate mode : Constant
    Bit rate : 192 Kbps
    Channel(s) : 2 channels
    Sampling rate : 48.0 KHz
    Compression mode : Lossy
    Stream size : 77.9 MiB (13%)
    Alignment : Aligned on interleaves
    Interleave, duration : 40 ms (1.00 video frame)
    Interleave, preload duration : 504 ms
    Раздача ведётся путём добавления новых серий
    Раздача ведётся путём добавления новых серий; при каждом добавлении создаётся новый торрент. Чтобы начать докачку новой серии, пользователям необходимо сделать следующее:
    (1) остановить скачивание,
    (2) удалить старый торрент у себя из клиента (старые серии удалять не надо),
    (3) скачать новый торрент и запустить его у себя в клиенте вместо старого, при этом указать клиенту путь в старую папку куда и должно происходить скачивание новых серий.

    Ваш клиент при этом должен произвести хеширование (проверку) старой папки (если не производит сам - помогите ему сделать это), и будет докачивать только те серии которых у вас ещё нет. Старые серии при этом не удаляются, а продолжают раздаваться!

    Eсли вы уже удалили старые серии, то предотвратить повторную закачку старых серий можно, отжав галочку в соответствующих местах при запуске нового торрента. По возможности, желательно не удалять старые серии как можно дольше чтобы релизёр не столько продолжал раздавать старые серии, а смог сконцентрироваться на новых.

    Размер скачиваемого торрента: 1.16 GB (1248503808 Bytes)

    Доктор Блейк / The Doctor Blake Mysteries (2013) WEB-DLRip торрент скачать бесплатно
    загрузка...
    Рейтинг →
     (голосов: 1, оценка 5/5, голосовать можно 1 раз )

    Другие торренты по теме:

  • Доктор Блейк / The Doctor Blake Mysteries (2013) PDTVRip | Agatha Studdio


    • Комментарии (0):

      Информация

      Информация

        Посетители, находящиеся в группе Гости, не могут оставлять комментарии в данной новости.

        ↓ Меню



        ↓ Опрос

        А Вы добавили сайт в закладки?
        Да
        Не


        Top 10 за месяц (Фильмы)