.
Авторизация | Регистрация
Хочешь лучшие торренты? Добавь свой email!
Добавить
» » Небесные создания / Heavenly Creatures (1994) HDRip-AVC | iPhone | P скачать торрент бесплатно




    Небесные создания / Heavenly Creatures (1994) HDRip-AVC | iPhone | P скачать торрент бесплатно

    Опубликовал: Админ | Дата: 27-02-2015, 11:10 | Просмотров: 283



    Небесные создания / Heavenly Creatures (1994) HDRip-AVC | iPhone | P

    Русское название: Небесные создания
    Русское название в мировом прокате: Heavenly Creatures
    Создали в: 1994
    Категория жанра: фэнтези, драма, криминал, биография
    Главный режиссер: Питер Джексон
    Актеры: Мелани Лински, Кейт Уинслет, Сара Пирс, Дайана Кент, Клайв Меррисон, Саймон О’Коннор, Джед Брофи, Питер Эллиотт, Гилберт Голди, Джеффри Хит

    Сюжет фильма:
    Все изменилось в жизни Полин, когда в их классе появилась новая ученица — Джулиет. Ее мир фантазий и независимость словно пробудили Полин ото сна. И ставшие неразлучными, подруги оказываются во власти неизведанных чувств. Но когда их очаровательно-невинная дружба сталкивается с угрозой, они преображаются, чтобы защититься!



    Снималось в: Новая Зеландия, Германия
    Киностудия: Fontana Productions, New Zealand Film Commission, WingNut Films
    Время просмотра: 01:48:53
    Перевод текста: Русский профессиональный многоголосый закадровый


    Файл
    Кодек для видео: H.264
    Качество фильма: HDRip-AVC 480p | iPhone
    Информация о видео: 640x362@852x362 (2.35:1) at 23.976 fps, AVC at 1700 kbps
    Информация о звуке:
    1: ААС 2.0 192 kbps - Русский профессиональный многоголосый закадровый
    2: ААС 2.0 192 kbps - Английский
    Субтитры: Английские

    MI

    General
    Complete name : C:CREATE480outHeavenly Creatures.1994 (SD).m4v
    Format : MPEG-4
    Codec ID : M4V
    File size : 1.58 GiB
    Duration : 1h 48mn
    Overall bit rate mode : Variable
    Overall bit rate : 2 081 Kbps
    Movie name : Небесные создания
    Performer : Питер Джексон
    Genre : Sci-Fi Fantasy
    Recorded date : UTC 1994-10-14 07:00:00
    Encoded date : UTC 2014-02-27 05:52:06
    Tagged date : UTC 2014-02-27 06:08:57
    Copyright : Miramax
    Cover : Yes
    Comment : Они не оставляют шансов
    sonm : Heavenly Creatures
    desc : Все изменилось в жизни Полин, когда в их классе появилась новая ученица — Джулиет. Ее мир фантазий и независимость словно пробудили Полин ото сна. И ставшие неразлучными, подруги оказываются во власти неизведанных чувств.
    ldes : Все изменилось в жизни Полин, когда в их классе появилась новая ученица — Джулиет. Ее мир фантазий и независимость словно пробудили Полин ото сна. И ставшие неразлучными, подруги оказываются во власти неизведанных чувств. Но когда их очаровательно-невинная дружба сталкивается с угрозой, они преображаются, чтобы защититься!
    stik : 9
    rtng : 0
    cnID : 432513289
    xid : Apple:vendor_id:1994-5912
    iTunEXTC : mpaa|R|400|

    Video #1
    ID : 1
    Format : AVC
    Format/Info : Advanced Video Codec
    Format profile : Baseline@L3.0
    Format settings, CABAC : No
    Format settings, ReFrames : 2 frames
    Codec ID : avc1
    Codec ID/Info : Advanced Video Coding
    Duration : 1h 48mn
    Bit rate : 1 700 Kbps
    Maximum bit rate : 7 459 Kbps
    Width : 640 pixels
    Height : 362 pixels
    Display aspect ratio : 2.35:1
    Frame rate mode : Constant
    Frame rate : 23.976 fps
    Color space : YUV
    Chroma subsampling : 4:2:0
    Bit depth : 8 bits
    Scan type : Progressive
    Bits/(Pixel*Frame) : 0.306
    Stream size : 1.29 GiB (81%)
    Title : Heavenly Creatures _1994_
    Writing library : x264 core 140 r2377 40 929f149 tMod 8-bit@4:2:0 X86_64
    Encoding settings : cabac=0 / ref=2 / deblock=1:-2:-2 / analyse=0x1:0x131 / me=umh / subme=7 / psy=1 / fade_compensate=1.00 / psy_rd=1.00:0.15 / mixed_ref=1 / me_range=32 / chroma_me=1 / trellis=2 / 8x8dct=0 / cqm=0 / deadzone=21,11 / fast_pskip=0 / chroma_qp_offset=-3 / threads=12 / lookahead_threads=2 / sliced_threads=0 / nr=0 / decimate=0 / interlaced=0 / bluray_compat=0 / constrained_intra=0 / fgo=0 / bframes=0 / weightp=0 / keyint=250 / keyint_min=23 / scenecut=40 / intra_refresh=0 / rc_lookahead=80 / rc=2pass / mbtree=1 / bitrate=1700 / ratetol=1.0 / qcomp=0.60 / qpmin=0:0:0 / qpmax=69:69:69 / qpstep=4 / cplxblur=20.0 / qblur=0.5 / vbv_maxrate=5000 / vbv_bufsize=5000 / nal_hrd=none / filler=0 / ip_ratio=1.35 / aq=4:0.90 / aq-sensitivity=10.00 / aq-factor=1.00:1.00:1.00 / aq2=0 / aq3=0
    Language : English
    Encoded date : UTC 2014-02-27 05:52:06
    Tagged date : UTC 2014-02-27 05:52:43
    Matrix coefficients : BT.709

    Video #2
    ID : 7
    Format : JPEG
    Codec ID : jpeg
    Duration : 1h 48mn
    Bit rate mode : Variable
    Bit rate : 538 bps
    Width : 640 pixels
    Height : 272 pixels
    Display aspect ratio : 2.35:1
    Frame rate mode : Variable
    Frame rate : 0.002 fps
    Minimum frame rate : 0.002 fps
    Maximum frame rate : 0.005 fps
    Color space : YUV
    Chroma subsampling : 4:2:0
    Bit depth : 8 bits
    Compression mode : Lossy
    Bits/(Pixel*Frame) : 1.545
    Stream size : 525 KiB (0%)
    Language : English
    Encoded date : UTC 2014-02-27 06:08:44
    Tagged date : UTC 2014-02-27 06:08:44

    Audio #1
    ID : 2
    Format : AAC
    Format/Info : Advanced Audio Codec
    Format profile : LC
    Codec ID : 40
    Duration : 1h 48mn
    Bit rate mode : Variable
    Bit rate : 192 Kbps
    Maximum bit rate : 248 Kbps
    Channel(s) : 2 channels
    Channel positions : Front: L R
    Sampling rate : 48.0 KHz
    Compression mode : Lossy
    Stream size : 147 MiB (9%)
    Title : MVO
    Language : Russian
    Encoded date : UTC 2014-02-27 05:43:50
    Tagged date : UTC 2014-02-27 05:52:43

    Audio #2
    ID : 3
    Format : AAC
    Format/Info : Advanced Audio Codec
    Format profile : LC
    Codec ID : 40
    Duration : 1h 48mn
    Bit rate mode : Variable
    Bit rate : 192 Kbps
    Maximum bit rate : 247 Kbps
    Channel(s) : 2 channels
    Channel positions : Front: L R
    Sampling rate : 48.0 KHz
    Compression mode : Lossy
    Stream size : 152 MiB (9%)
    Title : Original
    Language : English
    Encoded date : UTC 2014-02-27 05:49:03
    Tagged date : UTC 2014-02-27 05:52:43

    Text #1
    ID : 4
    Format : Timed Text
    Muxing mode : sbtl
    Codec ID : tx3g
    Duration : 1h 45mn
    Bit rate mode : Variable
    Bit rate : 84 bps
    Stream size : 65.4 KiB (0%)
    Title : Sbutitle Russian
    Language : Russian
    Encoded date : UTC 2014-02-27 05:52:43
    Tagged date : UTC 2014-02-27 05:52:43

    Text #2
    ID : 5
    Format : Timed Text
    Muxing mode : sbtl
    Codec ID : tx3g
    Duration : 1h 44mn
    Bit rate mode : Variable
    Bit rate : 66 bps
    Stream size : 50.4 KiB (0%)
    Title : Subtitle English
    Language : English
    Encoded date : UTC 2014-02-27 05:52:43
    Tagged date : UTC 2014-02-27 05:52:43

    Menu
    ID : 6
    Codec ID : text
    Duration : 1h 48mn
    Language : English
    Encoded date : UTC 2014-02-27 05:54:26
    Tagged date : UTC 2014-02-27 05:54:26
    Bit rate mode : VBR
    iTunes Meta Tags

    Sort Name: Heavenly Creatures
    XID: Apple:vendor_id:1994-5912
    contentID: 432513289
    Copyright: Miramax
    Screenwriters: Peter Jackson, Fran Walsh
    Producers: Jim Booth
    Director: Peter Jackson
    Cast: Melanie Lynskey (Pauline Parker Rieper), Kate Winslet (Juliet Hulme), Sarah Peirse (Honorah Parker Rieper), Simon O;Connor (Herbert Rieper), Diana Kent (Hilda Hulme), Clive Merrison (Dr. Henry Hulme), Gilbert Goldie (Dr. Bennett)
    Studio: Fontana Productions, New Zealand Film Commission, WingNut Films
    Rating: 5
    Long Deion: Все изменилось в жизни Полин, когда в их классе появилась новая ученица — Джулиет. Ее мир фантазий и независимость словно пробудили Полин ото сна. И ставшие неразлучными, подруги оказываются во власти неизведанных чувств. Но когда их очаровательно-невинная дружба сталкивается с угрозой, они преображаются, чтобы защититься!
    Deion: Все изменилось в жизни Полин, когда в их классе появилась новая ученица — Джулиет. Ее мир фантазий и независимость словно пробудили Полин ото сна. И ставшие неразлучными, подруги оказываются во власти неизведанных чувств.
    Release Date: 1994-10-14T07:00:00Z
    Genre: Sci-Fi Fantasy
    Comments: Они не оставляют шансов
    Artist: Питер Джексон
    Name: Небесные создания

    x264

    x264 info: frame I:2000 Avg QP:17.32 size: 25371
    x264 info: frame P:154643 Avg QP:20.23 size: 8605
    x264 info: mb I I16..4: 35.3% 0.0% 64.7%
    x264 info: mb P I16..4: 1.4% 0.0% 1.9% P16..4: 49.5% 18.7% 9.8% 1.8% 0.9% skip:15.9%
    x264 info: coded y,uvDC,uvAC intra: 58.9% 68.5% 37.4% inter: 42.5% 34.6% 14.9%
    x264 info: i16 v,h,dc,p: 46% 11% 10% 33%
    x264 info: i4 v,h,dc,ddl,ddr,vr,hd,vl,hu: 28% 13% 16% 7% 8% 9% 7% 8% 5%
    x264 info: i8c dc,h,v,p: 56% 13% 24% 7%
    x264 info: ref P L0: 79.4% 20.6%
    x264 info: kb/s:1691.63




    Залил: gekka
    Размер скачиваемого торрента: 1.58 GB (1699539876 Bytes)

    Небесные создания / Heavenly Creatures (1994) HDRip-AVC | iPhone | P торрент скачать бесплатно
    загрузка...
    Рейтинг →
     (голосов: 1, оценка 5/5, голосовать можно 1 раз )

    Другие торренты по теме:

  • Небесные создания / Heavenly Creatures (1994) BDRip 720р | P, А
  • Небесные создания / Heavenly creatures (1994) BDRip-AVC от HELLYWOOD | P


    • Комментарии (0):

      Информация

      Информация

        Посетители, находящиеся в группе Гости, не могут оставлять комментарии в данной новости.

        ↓ Меню



        ↓ Опрос

        А Вы добавили сайт в закладки?
        Да
        Не


        Top 10 за месяц (Фильмы)