.
Авторизация | Регистрация
Хочешь лучшие торренты? Добавь свой email!
Добавить
» » Грязь / Filth (2013) HDRip-AVC | iPhone | D скачать торрент бесплатно




    Грязь / Filth (2013) HDRip-AVC | iPhone | D скачать торрент бесплатно

    Опубликовал: Админ | Дата: 27-02-2015, 11:10 | Просмотров: 286



    Грязь / Filth (2013) HDRip-AVC | iPhone | D

    Русское название: Грязь
    Русское название в мировом прокате: Filth
    Создали в: 2013
    Категория жанра: криминал, драма, комедия
    Главный режиссер: Джон С. Бейрд
    Актеры: Джеймс МакЭвой, Джейми Белл, Эдди Марсан, Джим Бродбент, Имоджен Путс, Шона МакДональд, Ширли Хендерсон, Джон Сессионс, Гари Льюис, Иман Эллиотт

    Сюжет фильма:
    Главный герой — продажный шотландский полицейский Брюс Робертсон, помешанный на сексе и кокаине. Ему бы надо расследовать убийство, но ему сильно мешают собственные странности, привычка разыгрывать коллег и беготня за девушками. За Робертсоном присматривают его напарник Рэй Леннокс и начальник Боб Тоал.



    Снималось в: Великобритания
    Киностудия: Altitude Film Entertainment, Egoli Tossell Film AG, Entre Chien et Loup
    Время просмотра: 01:37:23
    Перевод текста: Русский дублированный


    Файл
    Кодек для видео: H.264
    Качество фильма: HDRip-AVC 480p | iPhone
    Информация о видео: 640x362@852x362 (2.35:1) at 24.000 fps, AVC at 1800 kbps
    Информация о звуке:
    1: ААС 2.0 180 kbps - Русский дублированный
    2: ААС 2.0 192 kbps - Английский
    Субтитры: Английские

    MI

    General
    Complete name : C:CREATE480outFilth.2013 (SD).m4v
    Format : MPEG-4
    Codec ID : M4V
    File size : 1.48 GiB
    Duration : 1h 37mn
    Overall bit rate mode : Variable
    Overall bit rate : 2 176 Kbps
    Movie name : Грязь
    Performer : Джон С. Бейрд
    Genre : Comedy
    Recorded date : UTC 2013-09-24 08:00:00
    Encoded date : UTC 2014-02-27 12:59:41
    Tagged date : UTC 2014-02-27 14:30:22
    Copyright : Altitude Film Entertainment , Egoli Tossell Film AG, Entre Chien et Loup
    Cover : Yes
    Comment : This Little Piggy went to town!
    sonm : Filth
    desc : Главный герой — продажный шотландский полицейский Брюс Робертсон, помешанный на сексе и кокаине. Ему бы надо расследовать убийство, но ему сильно мешают собственные странности, привычка разыгрывать коллег и беготня за девушками.
    ldes : Главный герой — продажный шотландский полицейский Брюс Робертсон, помешанный на сексе и кокаине. Ему бы надо расследовать убийство, но ему сильно мешают собственные странности, привычка разыгрывать коллег и беготня за девушками. За Робертсоном присматривают его напарник Рэй Леннокс и начальник Боб Тоал.
    stik : 9
    rtng : 0
    cnID : 467293
    xid : Apple:vendor_id:2013-467293
    iTunEXTC : mpaa|R|400|

    Video #1
    ID : 1
    Format : AVC
    Format/Info : Advanced Video Codec
    Format profile : Baseline@L3.0
    Format settings, CABAC : No
    Format settings, ReFrames : 2 frames
    Codec ID : avc1
    Codec ID/Info : Advanced Video Coding
    Duration : 1h 37mn
    Bit rate : 1 800 Kbps
    Maximum bit rate : 6 694 Kbps
    Width : 640 pixels
    Height : 362 pixels
    Display aspect ratio : 2.35:1
    Frame rate mode : Constant
    Frame rate : 24.000 fps
    Color space : YUV
    Chroma subsampling : 4:2:0
    Bit depth : 8 bits
    Scan type : Progressive
    Bits/(Pixel*Frame) : 0.324
    Stream size : 1.22 GiB (82%)
    Title : Filth _2013_
    Writing library : x264 core 140 r2377 40 929f149 tMod 8-bit@4:2:0 X86_64
    Encoding settings : cabac=0 / ref=2 / deblock=1:-2:-2 / analyse=0x1:0x131 / me=umh / subme=7 / psy=1 / fade_compensate=1.00 / psy_rd=1.05:0.15 / mixed_ref=1 / me_range=32 / chroma_me=1 / trellis=2 / 8x8dct=0 / cqm=0 / deadzone=21,11 / fast_pskip=0 / chroma_qp_offset=-3 / threads=12 / lookahead_threads=2 / sliced_threads=0 / nr=0 / decimate=0 / interlaced=0 / bluray_compat=0 / constrained_intra=0 / fgo=0 / bframes=0 / weightp=0 / keyint=250 / keyint_min=24 / scenecut=40 / intra_refresh=0 / rc_lookahead=120 / rc=2pass / mbtree=1 / bitrate=1800 / ratetol=1.0 / qcomp=0.60 / qpmin=0:0:0 / qpmax=69:69:69 / qpstep=4 / cplxblur=20.0 / qblur=0.5 / vbv_maxrate=5000 / vbv_bufsize=5000 / nal_hrd=none / filler=0 / ip_ratio=1.30 / aq=1:0.90 / aq-sensitivity=10.00 / aq-factor=1.00:1.00:1.00 / aq2=0 / aq3=1:0.50:0.50:0.50:0.50:0.50:0.50:0.50:0.50 / aq3-sensitivity=10.00 / aq3-factor=1.00:1.00:1.00:1.00:1.00:1.00 / aq3-boundary=205:56:9
    Language : English
    Encoded date : UTC 2014-02-27 12:59:41
    Tagged date : UTC 2014-02-27 13:00:25
    Matrix coefficients : BT.709

    Video #2
    ID : 6
    Format : JPEG
    Codec ID : jpeg
    Duration : 1h 37mn
    Bit rate mode : Variable
    Bit rate : 659 bps
    Width : 640 pixels
    Height : 272 pixels
    Display aspect ratio : 2.35:1
    Frame rate mode : Variable
    Frame rate : 0.002 fps
    Minimum frame rate : 0.002 fps
    Maximum frame rate : 0.003 fps
    Color space : YUV
    Chroma subsampling : 4:2:0
    Bit depth : 8 bits
    Compression mode : Lossy
    Bits/(Pixel*Frame) : 1.893
    Stream size : 483 KiB (0%)
    Language : English
    Encoded date : UTC 2014-02-27 14:30:18
    Tagged date : UTC 2014-02-27 14:30:19

    Audio #1
    ID : 2
    Format : AAC
    Format/Info : Advanced Audio Codec
    Format profile : LC
    Codec ID : 40
    Duration : 1h 37mn
    Bit rate mode : Variable
    Bit rate : 184 Kbps
    Maximum bit rate : 224 Kbps
    Channel(s) : 2 channels
    Channel positions : Front: L R
    Sampling rate : 48.0 KHz
    Compression mode : Lossy
    Stream size : 128 MiB (8%)
    Title : Dub
    Language : Russian
    Encoded date : UTC 2014-02-27 12:48:35
    Tagged date : UTC 2014-02-27 13:00:25

    Audio #2
    ID : 3
    Format : AAC
    Format/Info : Advanced Audio Codec
    Format profile : LC
    Codec ID : 40
    Duration : 1h 37mn
    Bit rate mode : Variable
    Bit rate : 192 Kbps
    Maximum bit rate : 231 Kbps
    Channel(s) : 2 channels
    Channel positions : Front: L R
    Sampling rate : 48.0 KHz
    Compression mode : Lossy
    Stream size : 135 MiB (9%)
    Title : Original
    Language : English
    Encoded date : UTC 2014-02-27 12:55:29
    Tagged date : UTC 2014-02-27 13:00:25

    Text
    ID : 4
    Format : Timed Text
    Muxing mode : sbtl
    Codec ID : tx3g
    Duration : 1h 31mn
    Bit rate mode : Variable
    Bit rate : 79 bps
    Stream size : 53.0 KiB (0%)
    Title : Subtitle English Full
    Language : English
    Encoded date : UTC 2014-02-27 13:00:25
    Tagged date : UTC 2014-02-27 13:00:25

    Menu
    ID : 5
    Codec ID : text
    Duration : 1h 37mn
    Language : English
    Encoded date : UTC 2014-02-27 13:02:21
    Tagged date : UTC 2014-02-27 13:02:21
    Bit rate mode : CBR

    iTunes Meta Tags

    Sort Name: Filth
    XID: Apple:vendor_id:2013-467293
    contentID: 467293
    Copyright: Altitude Film Entertainment , Egoli Tossell Film AG, Entre Chien et Loup
    Screenwriters: Джон С. Бейрд, Ирвин Уэлш
    Producers: Марк Эмин, Кристиан Ангермейер, Джон С. Бейрд
    Director: Jon S. Baird
    Cast: James McAvoy (Bruce Robertson), Imogen Poots (Amanda Drummond), Jamie Bell (Ray Lennox), Joanne Froggatt (Mary), Eddie Marsan (Bladesey), Emun Elliott (Peter Inglis), Jim Broadbent (Dr. Rossi), Kate Dickie (Chrissie), Shirley Henderson (Bunty), Ron Donachie (Hector), Martin Compston (Gorman), Iain De Caestecker (Ocky), David Soul (Punter), Pollyanna McIntosh (Size Queen), Shauna Macdonald (Carole Robertson), Gary Lewis (Gus Bain), Natasha O;Keeffe (Anna), John Sessions (Bob Toal), Brian McCardie (Dougie Gillman)
    Studio: Altitude Film Entertainment , Egoli Tossell Film AG, Entre Chien et Loup
    Rating: 5
    Long Deion: Главный герой — продажный шотландский полицейский Брюс Робертсон, помешанный на сексе и кокаине. Ему бы надо расследовать убийство, но ему сильно мешают собственные странности, привычка разыгрывать коллег и беготня за девушками. За Робертсоном присматривают его напарник Рэй Леннокс и начальник Боб Тоал.
    Deion: Главный герой — продажный шотландский полицейский Брюс Робертсон, помешанный на сексе и кокаине. Ему бы надо расследовать убийство, но ему сильно мешают собственные странности, привычка разыгрывать коллег и беготня за девушками.
    Release Date: 2013-09-24T08:00:00Z
    Genre: Comedy
    Comments: This Little Piggy went to town!
    Artist: Джон С. Бейрд
    Name: Грязь
    x264

    x264 info: frame I:1935 Avg QP:16.68 size: 31886
    x264 info: frame P:138281 Avg QP:19.13 size: 9027
    x264 info: mb I I16..4: 28.0% 0.0% 72.0%
    x264 info: mb P I16..4: 0.9% 0.0% 1.1% P16..4: 50.6% 19.4% 10.8% 1.8% 0.8% skip:14.6%
    x264 info: coded y,uvDC,uvAC intra: 62.8% 76.3% 58.8% inter: 43.3% 46.7% 28.5%
    x264 info: i16 v,h,dc,p: 54% 12% 7% 27%
    x264 info: i4 v,h,dc,ddl,ddr,vr,hd,vl,hu: 32% 13% 14% 6% 8% 10% 6% 8% 4%
    x264 info: i8c dc,h,v,p: 50% 14% 27% 9%
    x264 info: ref P L0: 76.9% 23.1%
    x264 info: kb/s:1793.68




    Залил: gekka
    Размер скачиваемого торрента: 1.48 GB (1589059342 Bytes)

    Грязь / Filth (2013) HDRip-AVC | iPhone | D торрент скачать бесплатно
    загрузка...
    Рейтинг →
     (голосов: 1, оценка 5/5, голосовать можно 1 раз )

    Другие торренты по теме:

  • Грязь / Желтая пресса / Dirt (2007) DVDRip | P
  • Грязь / Filth (2013) HD 1080p | Трейлер
  • Грязь / Filth (2013) DVDRip | Лицензия скачать через торрент бесплатно
  • Грязь / Filth (2013) DVDRip от New-Team | D | Лицензия
  • Грязь / Filth (2013) DVDRip-AVC | Лицензия
  • Грязь / Filth (2013) DVDRip от Scarabey | D | Лицензия
  • Грязь и мудрость / Filth and Wisdom (2008) DVDRip скачать через торрент бесплатно
  • OST - Грязь / Filth (2013) MP3 скачать через торрент бесплатно


    • Комментарии (0):

      Информация

      Информация

        Посетители, находящиеся в группе Гости, не могут оставлять комментарии в данной новости.

        ↓ Меню



        ↓ Опрос

        А Вы добавили сайт в закладки?
        Да
        Не


        Top 10 за месяц (Фильмы)