.
Авторизация | Регистрация
Хочешь лучшие торренты? Добавь свой email!
Добавить
» » Из пекла / Out of the Furnace (2013) BDRip 1080p от GORESEWAGE | 2xL2 скачать торрент бесплатно




    Из пекла / Out of the Furnace (2013) BDRip 1080p от GORESEWAGE | 2xL2 скачать торрент бесплатно

    Опубликовал: Админ | Дата: 27-02-2015, 11:10 | Просмотров: 285



    Русское название: Из пекла
    Русское название в мировом прокате: Out of the Furnace
    Создали в: 2013
    Снималось в: США, Великобритания
    Категория жанра: триллер, драма, криминал
    Время просмотра: 01:56:07
    Перевод текста 1: Любительский (двухголосый закадровый) Дмитрий Чепусов Анастасия Флигина (Jimmy J.)
    Перевод текста 2: Любительский (двухголосый закадровый) Студия Paradox
    Оригинальная аудиодорожка: English
    Субтитры: English (SDH)
    Киностудия: Appian Way, Energy Entertainment, Red Granite Pictures

    Главный режиссёр: Скотт Купер / Scott Cooper

    Актеры: Кристиан Бэйл, Вуди Харрельсон, Кейси Аффлек, Форест Уитакер, Уиллем Дефо, Зои Салдана, Сэм Шепард, Дендри Тейлор, Карл Киарфалио, Нэнси Моссер и др.

    Сюжет: Когда Родни Бэйз таинственно исчезает, а правоохранительные органы при этом действуют недостаточно быстро, его старший брат Рассел берёт дело в свои руки, чтобы добиться справедливости.



    Sample

    Качество фильма: BDRip 1080p (CHD)
    Контейнер: MKV
    Информация о видео кодек: MPEG-4 AVC Video
    Информация о звуке кодек: DTS / AC3
    Информация о видео: MPEG-4 AVC Video / 13633 kbps / 1920x800p / 23,976 fps / 2.40:1 / High Profile 4.1
    Информация о звуке 1: Russian / AC3 / 5.1 / 48 kHz / 448 kbps / 16-bit / DVO Дмитрий Чепусов Анастасия Флигина (Jimmy J.)
    Информация о звуке 2: Russian / AC3 / 2.0 / 48 kHz / 224 kbps / 16-bit / DVO Студия Paradox
    Информация о звуке 3: English / DTS / 5.1 / 48 kHz / 1536 kbps / 24-bit / Original
    Навигация по главам: да

    Дополнительная информация

    * За дорогу №1 thx Дмитрий Чепусов Анастасия Флигина (Jimmy J.).
    * За дорогу №2 thx Студия Paradox.

    Внимание! Дороги №1 2 содержат ненормативную лексику!

    Скриншоты для ознакомления

    MediaInfo
    C:/GORESEWAGE/Out of the Furnace 2013 BDRip 1080p GORESEWAGE.mkv
    General
    Unique ID : 239466066229904007462620211150270163467 (0xB4277C9C69D3E4339225D3870E6EEA0B)
    Complete name : C:/GORESEWAGE/Out of the Furnace 2013 BDRip 1080p GORESEWAGE.mkv
    Format : Matroska
    Format version : Version 4 / Version 2
    File size : 12.8 GiB
    Duration : 1h 56mn
    Overall bit rate : 15.8 Mbps
    Movie name : Out of the Furnace 2013 BDRip 1080p GORESEWAGE
    Encoded date : UTC 2014-02-27 18:28:57
    Writing application : mkvmerge v6.1.0 (;Old Devil;) built on Mar 2 2013 14:32:37
    Writing library : libebml v1.3.0 libmatroska v1.4.0
    Attachment : Yes
    Video #1
    ID : 1
    Format : AVC
    Format/Info : Advanced Video Codec
    Format profile : High@L4.1
    Format settings, CABAC : Yes
    Format settings, ReFrames : 5 frames
    Codec ID : V_MPEG4/ISO/AVC
    Duration : 1h 56mn
    Bit rate : 13.6 Mbps
    Width : 1 920 pixels
    Height : 800 pixels
    Display aspect ratio : 2.40:1
    Frame rate mode : Constant
    Frame rate : 23.976 fps
    Color space : YUV
    Chroma subsampling : 4:2:0
    Bit depth : 8 bits
    Scan type : Progressive
    Bits/(Pixel*Frame) : 0.370
    Stream size : 10.8 GiB (84%)
    Title : Out of the Furnace 2013 BDRip 1080p GORESEWAGE
    Writing library : x264 core 138 r2356 a1d3d17
    Encoding settings : cabac=1 / ref=5 / deblock=1:-3:-3 / analyse=0x3:0x113 / me=umh / subme=10 / psy=1 / psy_rd=1.00:0.05 / mixed_ref=1 / me_range=32 / chroma_me=1 / trellis=2 / 8x8dct=1 / cqm=0 / deadzone=21,11 / fast_pskip=0 / chroma_qp_offset=-2 / threads=18 / lookahead_threads=1 / sliced_threads=0 / nr=0 / decimate=1 / interlaced=0 / bluray_compat=0 / constrained_intra=0 / bframes=6 / b_pyramid=2 / b_adapt=2 / b_bias=0 / direct=3 / weightb=1 / open_gop=0 / weightp=2 / keyint=250 / keyint_min=23 / scenecut=40 / intra_refresh=0 / rc=2pass / mbtree=0 / bitrate=13633 / ratetol=1.0 / qcomp=0.70 / qpmin=0 / qpmax=69 / qpstep=4 / cplxblur=20.0 / qblur=0.5 / ip_ratio=1.40 / pb_ratio=1.30 / aq=2:0.90
    Language : English
    Default : Yes
    Forced : No
    Audio #2
    ID : 2
    Format : AC-3
    Format/Info : Audio Coding 3
    Mode extension : CM (complete main)
    Format settings, Endianness : Big
    Codec ID : A_AC3
    Duration : 1h 56mn
    Bit rate mode : Constant
    Bit rate : 448 Kbps
    Channel count : 6 channels
    Channel positions : Front: L C R, Side: L R, LFE
    Sampling rate : 48.0 KHz
    Bit depth : 16 bits
    Compression mode : Lossy
    Stream size : 372 MiB (3%)
    Title : DVO Дмитрий Чепусов Анастасия Флигина (Jimmy J.)
    Language : Russian
    Default : Yes
    Forced : No
    Audio #3
    ID : 3
    Format : AC-3
    Format/Info : Audio Coding 3
    Mode extension : CM (complete main)
    Format settings, Endianness : Big
    Codec ID : A_AC3
    Duration : 1h 56mn
    Bit rate mode : Constant
    Bit rate : 224 Kbps
    Channel count : 2 channels
    Channel positions : Front: L R
    Sampling rate : 48.0 KHz
    Bit depth : 16 bits
    Compression mode : Lossy
    Stream size : 186 MiB (1%)
    Title : DVO Студия Paradox
    Language : Russian
    Default : No
    Forced : No
    Audio #4
    ID : 4
    Format : DTS
    Format/Info : Digital Theater Systems
    Mode : 16
    Format settings, Endianness : Big
    Codec ID : A_DTS
    Duration : 1h 56mn
    Bit rate mode : Constant
    Bit rate : 1 509 Kbps
    Channel count : 6 channels
    Channel positions : Front: L C R, Side: L R, LFE
    Sampling rate : 48.0 KHz
    Bit depth : 24 bits
    Compression mode : Lossy
    Stream size : 1.22 GiB (10%)
    Title : Original
    Language : English
    Default : No
    Forced : No
    Text #5
    ID : 5
    Format : UTF-8
    Codec ID : S_TEXT/UTF8
    Codec ID/Info : UTF-8 Plain Text
    Title : SDH
    Language : English
    Default : No
    Forced : No
    Menu
    00:00:00.000 : en:00:00:00.000
    00:04:54.669 : en:00:04:54.669
    00:09:02.709 : en:00:09:02.709
    00:12:11.105 : en:00:12:11.105
    00:15:39.856 : en:00:15:39.856
    00:17:55.074 : en:00:17:55.074
    00:21:13.397 : en:00:21:13.397
    00:23:40.961 : en:00:23:40.961
    00:28:09.646 : en:00:28:09.646
    00:33:17.162 : en:00:33:17.162
    00:39:15.353 : en:00:39:15.353
    00:45:26.223 : en:00:45:26.223
    00:53:10.020 : en:00:53:10.020
    01:01:09.666 : en:01:01:09.666
    01:05:31.886 : en:01:05:31.886
    01:10:08.579 : en:01:10:08.579
    01:12:25.383 : en:01:12:25.383
    01:21:45.192 : en:01:21:45.192
    01:27:18.024 : en:01:27:18.024
    01:30:31.593 : en:01:30:31.593
    01:34:18.736 : en:01:34:18.736
    01:37:58.039 : en:01:37:58.039
    01:42:51.916 : en:01:42:51.916
    01:47:49.296 : en:01:47:49.296

    Размер скачиваемого торрента: 12.79 GB (13736972907 Bytes)

    Из пекла / Out of the Furnace (2013) BDRip 1080p от GORESEWAGE | 2xL2 торрент скачать бесплатно
    загрузка...
    Рейтинг →
     (голосов: 1, оценка 4/5, голосовать можно 1 раз )

    Другие торренты по теме:

  • OST - Хеллбой: Герой из пекла / Hellboy (2004) MP3
  • Хеллбой: Герой из пекла / Hellboy (2004) BDRip-AVC от olegek70 | D, P, P2, A | Режиссерская версия / Directors cut
  • Хеллбой: Герой из пекла / Hellboy (2004) BDRip 720p | D, P, P2, A (Режиссёрская версия)
  • Хеллбой: Герой из пекла / Hellboy (2004) BDRip 1080p | Режиссёрская версия | D, P, P2, A
  • Из пекла / Out of the Furnace (2013) DVDScr | L2 скачать через торрент бесплатно
  • Из пекла / Out of the Furnace (2013) DVDScr-AVC | iPhone скачать через торрент бесплатно
  • Из пекла / Out of the Furnace (2013) DVDScr 720р | L2 скачать через торрент бесплатно
  • Из пекла / Out of the Furnace (2013) BDRip 720p от GORESEWAGE | 2xL2


    • Комментарии (0):

      Информация

      Информация

        Посетители, находящиеся в группе Гости, не могут оставлять комментарии в данной новости.

        ↓ Меню



        ↓ Опрос

        А Вы добавили сайт в закладки?
        Да
        Не


        Top 10 за месяц (Фильмы)