.
Авторизация | Регистрация
Хочешь лучшие торренты? Добавь свой email!
Добавить
» » Прекрасные создания / Beautiful Creatures (2013) BDRip 720p | Лицензия скачать через торрент бесплатно




    Прекрасные создания / Beautiful Creatures (2013) BDRip 720p | Лицензия скачать через торрент бесплатно

    Опубликовал: Админ | Дата: 27-02-2015, 11:10 | Просмотров: 239



    Детально о кино
    Русское название: Прекрасные создания
    Русское название в мировом прокате: Beautiful Creatures
    Создали в: 2013
    Категория жанра: Фэнтези, драма, мелодрама
    Снималось в: США, Warner Bros. Entertainment
    Главный режиссер: Ричард ЛаГравенес
    Актеры: Джереми Айронс, Эмми Россум, Эмма Томпсон, Виола Дэвис, Томас Манн, Кайл Галлнер, Олден Эйренрайк, Джастин Уачсбергер, Элис Энглерт, Зоя Дойч

    Сюжет фильма: Лена Дюкейн отличается от всех, кого когда-либо видел маленький южный город Гатлин, она борется с собой, пытаясь усмирить свою силу и проклятие, веками преследовавшее ее семью. Но даже в разросшихся садах, в мрачных болотах и на разрушенных могильниках позабытого Юга секрет не будет жить вечно.



    Файл
    Качество фильма: BDRip (720p)
    Информация о видео: MPEG-4 AVC, 5682 Кбит/с, 1280x534
    Информация о звуке: Русский (AC3, 6 ch, 640 Кбит/с), (DTS, 6 ch, 1510 Кбит/с), английский (DTS, 6 ch, 1510 Кбит/с)
    Перевод текста: Дублированный лицензия
    Субтитры: Английские

    MI
    Общее
    Уникальный идентификатор : 218938214736518951857366392543197837564 (0xA4B5F7643B7C0EA38F0D199151CCB8FC)
    Полное имя : C:Beautiful.Creatures.2013.D.BDRip.720p.mkv
    Формат : Matroska
    Версия формата : Version 2
    Размер файла : 8,18 Гбайт
    Продолжительность : 2 ч. 3 м.
    Общий поток : 9457 Кбит/сек
    Дата кодирования : UTC 2014-02-25 20:48:01
    Программа кодирования : mkvmerge v6.7.0 (;Back to the Ground;) 64bit built on Jan 8 2014 15:10:52
    Библиотека кодирования : libebml v1.3.0 libmatroska v1.4.1

    Видео
    Идентификатор : 1
    Формат : AVC
    Формат/Информация : Advanced Video Codec
    Профиль формата : High@L4.1
    Параметр CABAC формата : Да
    Параметр ReFrames формата : 12 кадров
    Идентификатор кодека : V_MPEG4/ISO/AVC
    Продолжительность : 2 ч. 3 м.
    Битрейт : 5611 Кбит/сек
    Ширина : 1280 пикселей
    Высота : 534 пикселя
    Соотношение сторон : 2,40:1
    Режим частоты кадров : Постоянный
    Частота кадров : 23,976 кадра/сек
    Цветовое пространство : YUV
    Субдискретизация насыщенности : 4:2:0
    Битовая глубина : 8 бит
    Тип развёртки : Прогрессивная
    Бит/(Пиксели*Кадры) : 0.342
    Размер потока : 4,85 Гбайт (59%)
    Библиотека кодирования : x264 core 130 r2274 704 40 24c804d tMod MixAQ 8-bit@4:2:0 X86_64
    Настройки программы : cabac=1 / ref=12 / deblock=1:-3:-3 / analyse=0x3:0x113 / me=umh / subme=11 / psy=1 / fade_compensate=0.00 / psy_rd=1.05:0.00 / mixed_ref=1 / me_range=48 / chroma_me=1 / trellis=2 / 8x8dct=1 / cqm=0 / deadzone=21,11 / fast_pskip=0 / chroma_qp_offset=-2 / threads=12 / lookahead_threads=1 / sliced_threads=0 / nr=0 / decimate=0 / interlaced=0 / bluray_compat=0 / constrained_intra=0 / fgo=0 / bframes=6 / b_pyramid=2 / b_adapt=2 / b_bias=0 / direct=3 / weightb=1 / open_gop=0 / weightp=2 / keyint=240 / keyint_min=24 / scenecut=40 / intra_refresh=0 / rc=crf / mbtree=0 / crf=16.5000 / qcomp=0.72 / qpmin=0 / qpmax=69 / qpstep=4 / ip_ratio=1.25 / pb_ratio=1.20 / aq=4:0.90 / aq-sensitivity=10.00 / aq-ifactor=1.00 / aq-pfactor=1.00 / aq-bfactor=1.00 / aq2=0
    Язык : English
    Default : Да
    Forced : Нет

    Аудио #1
    Идентификатор : 2
    Формат : AC-3
    Формат/Информация : Audio Coding 3
    Расширение режима : CM (complete main)
    Параметр Endianness формата : Big
    Идентификатор кодека : A_AC3
    Продолжительность : 2 ч. 3 м.
    Вид битрейта : Постоянный
    Битрейт : 640 Кбит/сек
    Каналы : 6 каналов
    Расположение каналов : Front: L C R, Side: L R, LFE
    Частота : 48,0 КГц
    Битовая глубина : 16 бит
    Метод сжатия : С потерями
    Размер потока : 567 Мбайт (7%)
    Язык : Russian
    Default : Да
    Forced : Нет

    Аудио #2
    Идентификатор : 3
    Формат : DTS
    Формат/Информация : Digital Theater Systems
    Режим : 16
    Параметр Endianness формата : Big
    Идентификатор кодека : A_DTS
    Продолжительность : 2 ч. 3 м.
    Вид битрейта : Постоянный
    Битрейт : 1509 Кбит/сек
    Каналы : 6 каналов
    Расположение каналов : Front: L C R, Side: L R, LFE
    Частота : 48,0 КГц
    Битовая глубина : 16 бит
    Метод сжатия : С потерями
    Размер потока : 1,30 Гбайт (16%)
    Язык : Russian
    Default : Нет
    Forced : Нет

    Аудио #3
    Идентификатор : 4
    Формат : DTS
    Формат/Информация : Digital Theater Systems
    Режим : 16
    Параметр Endianness формата : Big
    Идентификатор кодека : A_DTS
    Продолжительность : 2 ч. 3 м.
    Вид битрейта : Постоянный
    Битрейт : 1509 Кбит/сек
    Каналы : 6 каналов
    Расположение каналов : Front: L C R, Side: L R, LFE
    Частота : 48,0 КГц
    Битовая глубина : 24 бит
    Метод сжатия : С потерями
    Размер потока : 1,30 Гбайт (16%)
    Язык : English
    Default : Нет
    Forced : Нет

    Текст
    Идентификатор : 5
    Формат : UTF-8
    Идентификатор кодека : S_TEXT/UTF8
    Идентификатор кодека/Информация : UTF-8 Plain Text
    Язык : English
    Default : Нет
    Forced : Нет

    Меню
    00:00:00.000 : en:00:00:00.000
    00:09:38.036 : en:00:09:38.036
    00:18:05.543 : en:00:18:05.543
    00:28:05.058 : en:00:28:05.058
    00:38:47.158 : en:00:38:47.158
    00:49:34.054 : en:00:49:34.054
    01:02:48.640 : en:01:02:48.640
    01:11:04.510 : en:01:11:04.510
    01:19:58.252 : en:01:19:58.252
    01:28:35.393 : en:01:28:35.393
    01:37:40.104 : en:01:37:40.104
    01:52:17.564 : en:01:52:17.564
    01:57:26.039 : en:01:57:26.039


    Скриншоты для ознакомления


    Размер скачиваемого торрента: 8.18 GB (8778267970 Bytes)

    Прекрасные создания / Beautiful Creatures (2013) BDRip 720p | Лицензия скачать через торрент бесплатно
    загрузка...
    Рейтинг →
     (голосов: 1, оценка 4/5, голосовать можно 1 раз )

    Другие торренты по теме:

  • Прекрасные создания / Beautiful Creatures (2013) TS
  • Прекрасные создания / Beautiful Creatures (2013) BDRip 720p от INTERCINEMA | Чистый звук
  • Прекрасные создания / Beautiful Creatures (2013) BDRip-AVC от HELLYWOOD | чистый звук
  • Прекрасные создания / Beautiful Creatures (2013) HDRip от INTERCINEMA | Чистый звук
  • Прекрасные создания / Beautiful Creatures (2013) HDRip от BitTracker | Чистый звук
  • Прекрасные создания / Beautiful Creatures (2013) BDRip 1080p | Чистый звук
  • Прекрасные создания / Beautiful Creatures (2013) HDRip-AVC от Youtracker | Чистый Звук
  • Прекрасные создания / Beautiful Creatures (2013) HDRip от Scarabey | Чистый звук


    • Комментарии (0):

      Информация

      Информация

        Посетители, находящиеся в группе Гости, не могут оставлять комментарии в данной новости.

        ↓ Меню



        ↓ Опрос

        А Вы добавили сайт в закладки?
        Да
        Не


        Top 10 за месяц (Фильмы)