.
Авторизация | Регистрация
Хочешь лучшие торренты? Добавь свой email!
Добавить
» » Черные метки / The Art of the Steal (2013) WEB-DL 720p от CINEMANIA | A, L1 скачать через торрент бесплатно




    Черные метки / The Art of the Steal (2013) WEB-DL 720p от CINEMANIA | A, L1 скачать через торрент бесплатно

    Опубликовал: Админ | Дата: 27-02-2015, 11:10 | Просмотров: 237



    Детально о кино
    Русское название: Черные метки
    Русское название в мировом прокате: The Art of the Steal
    Создали в: 2013
    Категория жанра: комедия, криминал
    Главный режиссер: Джонатан Собол
    Актеры: Курт Рассел, Мэтт Диллон, Теренс Стэмп, Джей Барушель, Кэтрин Уинник, Крис Диамантополос, Кеннет Уэлш, Джейсон Джонс, Девон Бостик, Керин Двайер

    Сюжет фильма:
    Жил-был на свете Кранч Кэлхоун, который так здорово умел кататься на мотоцикле, что выступал с каскадерскими трюками, развлекая публику и при этом рискуя своей жизнью. Однажды он в очередной раз выехал на арену, разогнался, взлетел с трамплина, чисто вошел в горящий обруч... а потом вырубился, упал и в сознание пришел уже в больнице. Со сломанной шеей на мотоцикле не попрыгаешь, так что Кранч оказался заперт дома, наедине со скукой и воспоминаниями о былой карьере.

    Впрочем, Кранчу быстро надоело скучать, и он решил добывать адреналин иначе – посредством кражи ценностей мировой культуры. Его сводный братец разработал план, старый приятель, знающий всех и каждого в криминальном бизнесе, тоже согласился помочь, а на подхват они взяли ученика Кранча – парня слегка бестолкового, но зато старательного. Теперь их задача – украсть невероятно ценную книгу, которая хранится в музее. Проблема в том, что слаженная работа у Кранча и его товарищей получается не особенно хорошо.



    Снималось в: Канада
    Время просмотра: 01:30:15
    Тип перевода:
    Авторское (одноголосое) В.Белов
    Любительское (одноголосое) qwerty

    Файл
    Тип видео: MKV
    Качество фильма: WEB-DL 720p PHD
    Информация о видео: 3885 kb/s, 1280x530
    Информация о звуке:
    Russian В.Белов: AC3, 384 kb/s (6 ch)
    Russian qwerty: AC3, 192 kb/s (2 ch)
    English: AC3, 384 kb/s (6 ch)
    Субтитры: English
    Дополнительно: Сохранены оригинальные чаптеры как на Blu-Ray
    Размер скачиваемого торрента: 3.12 GB
    Скачать: Сэмпл

    Релиз группы:




    NFO
    Общее
    The.Art.Of.The.Steal.2013.WEB-DL.720p.CINEMANIA.mkv
    Формат : Matroska
    Версия формата : Version 4 / Version 2
    Размер файла : 3,12 Гбайт
    Продолжительность : 1 ч. 30 м.
    Общий поток : 4944 Кбит/сек
    Название фильма : Release Group CINEMANIA
    Дата кодирования : UTC 2014-02-26 13:29:57
    Программа кодирования : mkvmerge v6.7.0 (;Back to the Ground;) 64bit built on Jan 8 2014 15:10:52
    Библиотека кодирования : libebml v1.3.0 libmatroska v1.4.1

    Видео
    Идентификатор : 1
    Формат : AVC
    Формат/Информация : Advanced Video Codec
    Профиль формата : Main@L3.1
    Параметр CABAC формата : Нет
    Параметр ReFrames формата : 2 кадра
    Идентификатор кодека : V_MPEG4/ISO/AVC
    Продолжительность : 1 ч. 30 м.
    Битрейт : 3885 Кбит/сек
    Ширина : 1280 пикселей
    Высота : 530 пикселей
    Соотношение сторон : 2,40:1
    Режим частоты кадров : Постоянный
    Частота кадров : 23,976 кадра/сек
    Цветовое пространство : YUV
    Субдискретизация насыщенности : 4:2:0
    Битовая глубина : 8 бит
    Тип развёртки : Прогрессивная
    Бит/(Пиксели*Кадры) : 0.239
    Размер потока : 2,45 Гбайт (79%)
    Заголовок : Release Group CINEMANIA
    Язык : English
    Default : Да
    Forced : Нет
    Основные цвета : BT.709
    Характеристики трансфера : BT.709
    Коэффициенты матрицы : BT.709

    Аудио #1
    Идентификатор : 2
    Формат : AC-3
    Формат/Информация : Audio Coding 3
    Расширение режима : CM (complete main)
    Параметр Endianness формата : Big
    Идентификатор кодека : A_AC3
    Продолжительность : 1 ч. 30 м.
    Вид битрейта : Постоянный
    Битрейт : 384 Кбит/сек
    Каналы : 6 каналов
    Расположение каналов : Front: L C R, Side: L R, LFE
    Частота : 48,0 КГц
    Битовая глубина : 16 бит
    Метод сжатия : С потерями
    Размер потока : 248 Мбайт (8%)
    Заголовок : В.Белов
    Язык : Russian
    Default : Да
    Forced : Да

    Аудио #2
    Идентификатор : 3
    Формат : AC-3
    Формат/Информация : Audio Coding 3
    Профиль формата : Dolby Digital
    Расширение режима : CM (complete main)
    Параметр Endianness формата : Big
    Идентификатор кодека : A_AC3
    Продолжительность : 1 ч. 30 м.
    Вид битрейта : Постоянный
    Битрейт : 192 Кбит/сек
    Каналы : 2 канала
    Расположение каналов : Front: L R
    Частота : 48,0 КГц
    Битовая глубина : 16 бит
    Метод сжатия : С потерями
    Размер потока : 124 Мбайт (4%)
    Заголовок : qwerty
    Язык : Russian
    Default : Нет
    Forced : Нет

    Аудио #3
    Идентификатор : 4
    Формат : AC-3
    Формат/Информация : Audio Coding 3
    Расширение режима : CM (complete main)
    Параметр Endianness формата : Big
    Идентификатор кодека : A_AC3
    Продолжительность : 1 ч. 30 м.
    Вид битрейта : Постоянный
    Битрейт : 384 Кбит/сек
    Каналы : 6 каналов
    Расположение каналов : Front: L C R, Side: L R, LFE
    Частота : 48,0 КГц
    Битовая глубина : 16 бит
    Метод сжатия : С потерями
    Размер потока : 248 Мбайт (8%)
    Язык : English
    Default : Нет
    Forced : Нет

    Текст
    Идентификатор : 5
    Формат : UTF-8
    Идентификатор кодека : S_TEXT/UTF8
    Идентификатор кодека/Информация : UTF-8 Plain Text
    Язык : English
    Default : Нет
    Forced : Нет

    Меню
    00:00:00.000 : en:Chapter 01
    00:07:11.000 : en:Chapter 02
    00:15:16.000 : en:Chapter 03
    00:22:17.000 : en:Chapter 04
    00:30:47.000 : en:Chapter 05
    00:38:22.000 : en:Chapter 06
    00:45:26.000 : en:Chapter 07
    00:52:35.000 : en:Chapter 08
    00:59:56.000 : en:Chapter 09
    01:07:21.000 : en:Chapter 10
    01:17:03.000 : en:Chapter 11
    01:23:50.000 : en:Chapter 12

    Залил: DGEKIGAN
    Размер скачиваемого торрента: 3.12 GB (3346249408 Bytes)

    Черные метки / The Art of the Steal (2013) WEB-DL 720p от CINEMANIA | A, L1 скачать через торрент бесплатно
    загрузка...
    Рейтинг →
     (голосов: 1, оценка 3/5, голосовать можно 1 раз )

    Другие торренты по теме:

  • Черные метки / The Art of the Steal (2013) WEB-DL 720p | L1
  • Черные метки / The Art of the Steal (2013) WEB-DLRip | L1
  • Черные метки / The Art of the Steal (2013) WEB-DLRip-AVC | A, L1 скачать через торрент бесплатно
  • Черные метки / The Art of the Steal (2013) BDRip 720p от CINEMANIA | A, L1 скачать через торрент бесплатно
  • Черные метки / The Art of the Steal (2013) BDRip 1080p от CINEMANIA | A, L1 скачать через торрент бесплатно
  • Красиво украсть / Черные метки / The Art of the Steal (2013) BDRip-AVC от MediaClub | A
  • Черные метки / The Art of the Steal (2013) HDRip от Scarabey | L1 скачать через торрент бесплатно
  • Черные метки / The Art of the Steal (2013) HDRip от Scarabey | iTunes скачать через торрент бесплатно


    • Комментарии (0):

      Информация

      Информация

        Посетители, находящиеся в группе Гости, не могут оставлять комментарии в данной новости.

        ↓ Меню



        ↓ Опрос

        А Вы добавили сайт в закладки?
        Да
        Не


        Top 10 за месяц (Фильмы)