.
Авторизация | Регистрация
Хочешь лучшие торренты? Добавь свой email!
Добавить
» » Колония / The Colony (2013) BDRip-AVC | iPhone | D скачать торрент бесплатно




    Колония / The Colony (2013) BDRip-AVC | iPhone | D скачать торрент бесплатно

    Опубликовал: Админ | Дата: 27-02-2015, 11:10 | Просмотров: 259



    Колония / The Colony (2013) BDRip-AVC 480p | iPhone | D

    Русское название: Колония
    Русское название в мировом прокате: The Colony
    Создали в: 2013
    Категория жанра: ужасы, фантастика, боевик
    Главный режиссер: Джефф Ренфро
    Актеры: Кевин Зегерс, Лоренс Фишбёрн, Шарлотта Салливан, Билл Пэкстон, Аттикус Дин Митчелл, Дрю Вигевер, Джулиан Ричингс, Джон Тенч, Майкл Мэндо, Романо Орцари

    Сюжет фильма:
    После природного катаклизма, под ледяной поверхностью, покрывшей Землю, оставшиеся в живых люди собрались в Колонию 7 и пытаются выжить несмотря на сокращающиеся запасы продовольствия. Они еще поддерживают связь с Колонией 5, но после того, как контакт с ними теряется, группа смельчаков отправляется в опасную экспедицию, чтобы выяснить, что произошло с их соседями. Преодолев тяжелейший путь герои сталкиваются с опасностью во много раз превосходящую природную угрозу холода...



    Снималось в: Канада
    Киностудия: Alcina Pictures, Item 7, Mad Samurai Productions
    Время просмотра: 01:34:26
    Перевод текста: Русский дублированный


    Файл
    Кодек для видео: H.264
    Качество фильма: BDRip-AVC 480p | iPhone
    Информация о видео: 640x362@852x362 (2.35:1) at 23.976 fps, AVC at 1540 kbps
    Информация о звуке:
    1: ААС 2.0 192 kbps - Русский дублированный
    2: ААС 2.0 192 kbps - Английский
    Субтитры: Английские

    MI

    General
    Complete name : C:CREATE480outThe Colony.2013 (SD).m4v
    Format : MPEG-4
    Codec ID : M4V
    File size : 1.28 GiB
    Duration : 1h 34mn
    Overall bit rate mode : Variable
    Overall bit rate : 1 935 Kbps
    Movie name : Колония
    Performer : Джефф Ренфро
    Genre : Sci-Fi Fantasy
    Recorded date : UTC 2013-09-20 07:00:00
    Encoded date : UTC 2014-02-25 12:20:02
    Tagged date : UTC 2014-02-25 12:47:16
    Copyright : Alcina Pictures, Item 7, Mad Samurai Productions
    Cover : Yes
    Comment : Они выжили после апокалипсиса. Но не только они
    sonm : The Colony
    desc : После природного катаклизма, под ледяной поверхностью, покрывшей Землю, оставшиеся в живых люди собрались в Колонию 7 и пытаются выжить несмотря на сокращающиеся запасы продовольствия.
    ldes : После природного катаклизма, под ледяной поверхностью, покрывшей Землю, оставшиеся в живых люди собрались в Колонию 7 и пытаются выжить несмотря на сокращающиеся запасы продовольствия. Они еще поддерживают связь с Колонией 5, но после того, как контакт с ними теряется, группа смельчаков отправляется в опасную экспедицию, чтобы выяснить, что произошло с их соседями. Преодолев тяжелейший путь герои сталкиваются с опасностью во много раз превосходящую природную угрозу холода…
    stik : 9
    rtng : 0
    cnID : 665545791
    xid : Apple:vendor_id:2013-420938
    iTunEXTC : mpaa|Unrated|600|

    Video #1
    ID : 1
    Format : AVC
    Format/Info : Advanced Video Codec
    Format profile : Baseline@L3.0
    Format settings, CABAC : No
    Format settings, ReFrames : 2 frames
    Codec ID : avc1
    Codec ID/Info : Advanced Video Coding
    Duration : 1h 34mn
    Bit rate : 1 540 Kbps
    Maximum bit rate : 8 429 Kbps
    Width : 640 pixels
    Height : 362 pixels
    Display aspect ratio : 2.35:1
    Frame rate mode : Constant
    Frame rate : 23.976 fps
    Color space : YUV
    Chroma subsampling : 4:2:0
    Bit depth : 8 bits
    Scan type : Progressive
    Bits/(Pixel*Frame) : 0.277
    Stream size : 1.02 GiB (80%)
    Title : The Colony _2013
    Writing library : x264 core 140 r2377 40 929f149 tMod 8-bit@4:2:0 X86_64
    Encoding settings : cabac=0 / ref=2 / deblock=1:-2:-2 / analyse=0x1:0x131 / me=umh / subme=7 / psy=1 / fade_compensate=1.00 / psy_rd=1.00:0.10 / mixed_ref=1 / me_range=48 / chroma_me=1 / trellis=2 / 8x8dct=0 / cqm=0 / deadzone=21,11 / fast_pskip=0 / chroma_qp_offset=-3 / threads=12 / lookahead_threads=2 / sliced_threads=0 / nr=0 / decimate=0 / interlaced=0 / bluray_compat=0 / constrained_intra=0 / fgo=0 / bframes=0 / weightp=0 / keyint=250 / keyint_min=23 / scenecut=40 / intra_refresh=0 / rc_lookahead=80 / rc=crf / mbtree=1 / crf=19.5000 / qcomp=0.60 / qpmin=0:0:0 / qpmax=69:69:69 / qpstep=4 / vbv_maxrate=5000 / vbv_bufsize=5000 / crf_max=0.0 / nal_hrd=none / filler=0 / ip_ratio=1.35 / aq=4:0.90 / aq-sensitivity=10.00 / aq-factor=1.00:1.00:1.00 / aq2=0 / aq3=0
    Language : English
    Encoded date : UTC 2014-02-25 12:20:02
    Tagged date : UTC 2014-02-25 12:20:58
    Matrix coefficients : BT.709

    Video #2
    ID : 8
    Format : JPEG
    Codec ID : jpeg
    Duration : 1h 34mn
    Bit rate mode : Variable
    Bit rate : 755 bps
    Width : 640 pixels
    Height : 272 pixels
    Display aspect ratio : 2.35:1
    Frame rate mode : Variable
    Frame rate : 0.003 fps
    Minimum frame rate : 0.002 fps
    Maximum frame rate : 0.004 fps
    Color space : YUV
    Chroma subsampling : 4:2:0
    Bit depth : 8 bits
    Compression mode : Lossy
    Bits/(Pixel*Frame) : 1.446
    Stream size : 491 KiB (0%)
    Language : English
    Encoded date : UTC 2014-02-25 12:47:00
    Tagged date : UTC 2014-02-25 12:47:00

    Audio #1
    ID : 2
    Format : AAC
    Format/Info : Advanced Audio Codec
    Format profile : LC
    Codec ID : 40
    Duration : 1h 34mn
    Bit rate mode : Variable
    Bit rate : 192 Kbps
    Maximum bit rate : 220 Kbps
    Channel(s) : 2 channels
    Channel positions : Front: L R
    Sampling rate : 48.0 KHz
    Compression mode : Lossy
    Stream size : 130 MiB (10%)
    Title : AAC Dub
    Language : Russian
    Encoded date : UTC 2014-02-25 12:09:12
    Tagged date : UTC 2014-02-25 12:20:58

    Audio #2
    ID : 4
    Format : AAC
    Format/Info : Advanced Audio Codec
    Format profile : LC
    Codec ID : 40
    Duration : 1h 34mn
    Bit rate mode : Variable
    Bit rate : 192 Kbps
    Maximum bit rate : 225 Kbps
    Channel(s) : 2 channels
    Channel positions : Front: L R
    Sampling rate : 48.0 KHz
    Compression mode : Lossy
    Stream size : 130 MiB (10%)
    Title : AAC Original
    Language : English
    Encoded date : UTC 2014-02-25 12:17:13
    Tagged date : UTC 2014-02-25 12:20:58

    Text
    ID : 6
    Format : Timed Text
    Muxing mode : sbtl
    Codec ID : tx3g
    Duration : 1h 25mn
    Bit rate mode : Variable
    Bit rate : 38 bps
    Stream size : 24.0 KiB (0%)
    Title : Subtitles English
    Language : English
    Encoded date : UTC 2014-02-25 12:20:58
    Tagged date : UTC 2014-02-25 12:20:58

    Menu
    ID : 7
    Codec ID : text
    Duration : 1h 34mn
    Language : English
    Encoded date : UTC 2014-02-25 12:23:20
    Tagged date : UTC 2014-02-25 12:23:20
    Bit rate mode : CBR

    iTunes Meta Tags

    Sort Name: The Colony
    XID: Apple:vendor_id:2013-420938
    contentID: 665545791
    Copyright: Alcina Pictures, Item 7, Mad Samurai Productions
    Screenwriters: Патрик Тарр, Паскаль Троттье, Джефф Ренфро
    Producers: Пол Баркин, Мэттью Керви, Пьер Ивен
    Director: Jeff Renfroe
    Cast: Кевин Зегерс, Лоренс Фишбёрн, Шарлотта Салливан, Билл Пэкстон, Аттикус Дин Митчелл, Дрю Вигевер, Джулиан Ричингс, Джон Тенч, Майкл Мэндо, Романо ОрцариLaurence Fishburne (Briggs), Kevin Zegers (Sam), Bill Paxton (Mason), John Tench (Viktor), Atticus Dean Mitchell (Graydon), Dru Viergever (Feral Leader), Romano Orzari (Reynolds), Earl Pastko (Scientist), Lisa Berry (Nara), Lucius Hoyos (Rowan), Michael Mando (Cooper), Eric Murdoch (Terrified Man), Kimberly-Sue Murray (Janelle), Julian Richings (Leland), Charlotte Sullivan (Kai)
    Studio: Alcina Pictures, Item 7, Mad Samurai Productions
    Rating: 0
    Long Deion: После природного катаклизма, под ледяной поверхностью, покрывшей Землю, оставшиеся в живых люди собрались в Колонию 7 и пытаются выжить несмотря на сокращающиеся запасы продовольствия. Они еще поддерживают связь с Колонией 5, но после того, как контакт с ними теряется, группа смельчаков отправляется в опасную экспедицию, чтобы выяснить, что произошло с их соседями. Преодолев тяжелейший путь герои сталкиваются с опасностью во много раз превосходящую природную угрозу холода…
    Deion: После природного катаклизма, под ледяной поверхностью, покрывшей Землю, оставшиеся в живых люди собрались в Колонию 7 и пытаются выжить несмотря на сокращающиеся запасы продовольствия.
    Release Date: 2013-09-20T07:00:00Z
    Genre: Sci-Fi Fantasy
    Comments: Они выжили после апокалипсиса. Но не только они
    Artist: Джефф Ренфро
    Name: Колония
    x264

    x264 info: frame I:2642 Avg QP:18.35 size: 19440
    x264 info: frame P:133211 Avg QP:20.34 size: 7802
    x264 info: mb I I16..4: 44.8% 0.0% 55.2%
    x264 info: mb P I16..4: 2.9% 0.0% 1.9% P16..4: 51.9% 17.7% 8.6% 1.3% 0.6% skip:15.2%
    x264 info: coded y,uvDC,uvAC intra: 41.9% 61.6% 35.0% inter: 37.5% 41.1% 18.0%
    x264 info: i16 v,h,dc,p: 47% 15% 10% 29%
    x264 info: i4 v,h,dc,ddl,ddr,vr,hd,vl,hu: 30% 14% 17% 6% 8% 9% 6% 7% 4%
    x264 info: i8c dc,h,v,p: 60% 12% 20% 8%
    x264 info: ref P L0: 74.2% 25.8%
    x264 info: kb/s:1539.88




    Залил: gekka
    Размер скачиваемого торрента: 1.28 GB (1370328003 Bytes)

    Колония / The Colony (2013) BDRip-AVC | iPhone | D торрент скачать бесплатно
    загрузка...
    Рейтинг →
     (голосов: 1, оценка 3/5, голосовать можно 1 раз )

    Другие торренты по теме:

  • Колония / Double Team (1997) HDTVRip
  • Колония / The Colony (2013) DVDRip | L2
  • Колония / The Colony (2013) WEB-DL 720p | L2
  • Колония / The Colony (2013) WEB-DLRip-AVC | L2
  • Колония / The Colony (2013) WEB-DL 1080p | L2
  • Колония / The Colony (2013) WEB-DLRip-AVC от ExKinoRay | L2
  • Колония / The Colony (2013) WEB-DLRip от BitTracker | L2
  • Колония / The Colony (2013) WEB-DLRip-AVC от FireBit-Films NoLimits-Team | L2


    • Комментарии (0):

      Информация

      Информация

        Посетители, находящиеся в группе Гости, не могут оставлять комментарии в данной новости.

        ↓ Меню



        ↓ Опрос

        А Вы добавили сайт в закладки?
        Да
        Не


        Top 10 за месяц (Фильмы)