.
Авторизация | Регистрация
Хочешь лучшие торренты? Добавь свой email!
Добавить
» » Анжелика, маркиза ангелов / Angelique, marquise des anges (2013) DVDRip от New-Team | D | лицензия скачать торрент бесплатно




    Анжелика, маркиза ангелов / Angelique, marquise des anges (2013) DVDRip от New-Team | D | лицензия скачать торрент бесплатно

    Опубликовал: Админ | Дата: 27-02-2015, 11:10 | Просмотров: 437



    Снималось в: Франция / ?sterreichischer Rundfunk (ORF), A Plus Image 4, A.J.O.Z. Films,,,

    Категория жанра: мелодрама, приключения
    Создали в: 2013
    Время просмотра: 01:48:06

    Перевод текста: Профессиональный (дублированный)
    Субтитры подготовлены: нет
    Оригинальная аудиодорожка: нет

    Главный режиссер: Ариэль Зейтун / Ariel Zeitoun

    Актеры: Нора Арнезедер, Жерар Ланвен, Томер Сисле, Симон Абкарян, Давид Кросс, Мэтью Бужена, Мигель Херц-Кестранек, Юлиан Вайгенд, Райнер Фриб, Флоренс Косте...

    Роли дублировали: Пётр Иващенко

    Сюжет: Франция XVII века. Юную красавицу Анжелику выдают замуж за графа Де Пейрака, обладающего огромным состоянием и слывущего колдуном. Поначалу Анжелика ненавидит мужа, но постепенно начинает понимать, что за суровой внешностью скрывается обаятельный, добрый, чуткий и справедливый мужчина. Между супругами вспыхивает настоящая любовь, но идиллия оказывается недолгой.
    Короля Людовика XIV, проездом посетившего замок Де Пейрака, начинает терзать зависть к семейному счастью и богатству своего подданного. Де Пейрак заточен в Бастилию и ждет казни. Но Анжелика готова биться за свою любовь до последнего вздоха. На помощь энергичной и независимой красавице приходит давно влюбленный в нее Николя — предводитель парижских разбойников.



    Качество фильма: DVDRip / DVD9 R5
    Тип видео: AVI

    Информация о видео: 688x304 (2.25:1), 25.000 fps, XviD ~ 826 kbps avg, 0.158 bit/pixel
    Информация о звуке: 48 kHz, МР3, 2 ch, 128 kbps, русский

    Раздача от:
    MediaInfo

    Общее
    Полное имя : Angelika.markiza.angelov.2013.D.DVDRip.745MB_NEW-Team_by_avproh.avi
    Формат : AVI
    Формат/Информация : Audio Video Interleave
    Размер файла : 745 Мбайт
    Продолжительность : 1 ч. 48 м.
    Общий поток : 964 Кбит/сек
    Программа кодирования : VirtualDubModRus 1.5.10.2 (build 2542/release)
    Библиотека кодирования : VirtualDubMod build 2542/release

    Видео
    Идентификатор : 0
    Формат : MPEG-4 Visual
    Профиль формата : Advanced Simple@L5
    Параметр BVOP формата : 1
    Параметр QPel формата : Нет
    Параметр GMC формата : Без точки перехода
    Параметр матрицы формата : Выборочная
    Идентификатор кодека : XVID
    Идентификатор кодека/Подсказка : XviD
    Продолжительность : 1 ч. 48 м.
    Битрейт : 826 Кбит/сек
    Ширина : 688 пикселей
    Высота : 304 пикселя
    Соотношение сторон : 2,25:1
    Частота кадров : 25,000 кадров/сек
    Цветовое пространство : YUV
    Субдискретизация насыщенности : 4:2:0
    Битовая глубина : 8 бит
    Тип развёртки : Прогрессивная
    Метод сжатия : С потерями
    Бит/(Пиксели*Кадры) : 0.158
    Размер потока : 639 Мбайт (86%)
    Библиотека кодирования : XviD 73

    Аудио
    Идентификатор : 1
    Формат : MPEG Audio
    Версия формата : Version 1
    Профиль формата : Layer 3
    Режим : Joint stereo
    Расширение режима : MS Stereo
    Идентификатор кодека : 55
    Идентификатор кодека/Подсказка : MP3
    Продолжительность : 1 ч. 48 м.
    Вид битрейта : Постоянный
    Битрейт : 128 Кбит/сек
    Каналы : 2 канала
    Частота : 48,0 КГц
    Метод сжатия : С потерями
    Размер потока : 99,0 Мбайт (13%)
    Выравнивание : Соединение по промежуткам
    Продолжительность промежутка : 40 мс. (1,00 видеокадр)
    Время предзагрузки промежутка : 504 мс.

    Скриншоты для ознакомления:



    Резервные скриншоты:



    Залил: avproh
    Размер скачиваемого торрента: 745.40 MB (781604864 Bytes)

    Анжелика, маркиза ангелов / Angelique, marquise des anges (2013) DVDRip от New-Team | D | лицензия торрент скачать бесплатно
    загрузка...
    Рейтинг →
     (голосов: 1, оценка 4/5, голосовать можно 1 раз )

    Другие торренты по теме:

  • Анжелика, маркиза ангелов (2014) скачать через торрент бесплатно
  • Анжелика, маркиза ангелов / Angelique, marquise des anges (1964) HDTV 1080i от ClubTorrent | D
  • Анжелика, маркиза ангелов / Angelique, marquise des anges (1964) HDTVRip от Leon-masl
  • Анжелика, маркиза ангелов / Angelique, marquise des anges (1964) BDRip by msltel | D, P скачать через торрент бесплатно
  • Анжелика, маркиза ангелов / Angelique, marquise des anges (1964) BDRip 720p by msltel | D, P
  • Анжелика, маркиза ангелов / Angelique, marquise des anges (1964) BDRip 1080p by msltel | D, P скачать через торрент бесплатно
  • Анжелика, маркиза ангелов / Anglique, marquise des anges (2013) DVDRip | Лицензия
  • Анжелика, маркиза ангелов / Angelique, marquise des anges (2013) DVD9 R5 от New-Team | D | лицензия скачать через торрент бесплатно


    • Комментарии (0):

      Информация

      Информация

        Посетители, находящиеся в группе Гости, не могут оставлять комментарии в данной новости.

        ↓ Меню



        ↓ Опрос

        А Вы добавили сайт в закладки?
        Да
        Не


        Top 10 за месяц (Фильмы)