.
Авторизация | Регистрация
Хочешь лучшие торренты? Добавь свой email!
Добавить
» » Подземка / Subway (1985) BDRemux 1080p от ExKinoRay | P, P2, A | Лицензия скачать через торрент бесплатно




    Подземка / Subway (1985) BDRemux 1080p от ExKinoRay | P, P2, A | Лицензия скачать через торрент бесплатно

    Опубликовал: Админ | Дата: 27-02-2015, 11:10 | Просмотров: 298



    Детально о кино

    Русское название: Подземка
    Русское название в мировом прокате: Subway
    Создали в: 1985
    Категория жанра: Триллер
    Снималось в: Франция, Les Films du Loup, TSF Productions, Gaumont
    Главный режиссер: Люк Бессон
    Актеры: Изабель Аджани, Кристофер Ламберт, Ришар Боринже, Мишель Галабрю, Жан-Юг Англад, Жан Буиз, Жан-Пьер Бакри, Жан-Клод Лека, Пьер-Анжи Ле Погам, Эрик Серра, Мишель Д;Оз, Бенуа Режан, Константин Александров, Изабель Садоян, Патрик Перез, Винсент Скименти, Мария Венсан, Джимми Бланш, Брижит Шамаранд, Франсис Лемонье, Жан Рено


    Сюжет фильма: Циник, вор и нарушитель общественного спокойствия Фред промышляет взломом сейфов и прочим криминалом. Однажды в его руки попадают документы, при помощи которых он получает возможность шантажировать загадочную красавицу Хелену. За документами тут же начинают охотиться их владельцы. Скрываясь от своих преследователей, герой прячется в метро, где знакомится со странной субкультурой живущих там людей, и где с ним происходят совершенно неожиданные истории.





    Файл

    Качество фильма: Blu-Ray Remux (1080p)
    Информация о видео: MPEG-4 AVC, 25049 Кбит/с, 1920x1080, 23.976 кадр/с
    Информация о звуке: Русский (AC3, 2 ch, 192 Кбит/с), (AC3, 2 ch, 224 Кбит/с), (AC3, 6 ch, 448 Кбит/с), (DTS, 6 ch, 1510 Кбит/с), французский (DTS-HD MA, 2 ch, 1576 Кбит/с)
    Размер скачиваемого торрента: 21.49 ГБ
    Время просмотра: 01:42:20
    Перевод текста: Профессиональный многоголосый, профессиональный двухголосый, авторский
    Субтитры: Русские, английские


    Аудио 1: Русский AC3 6 ch 448 kbps 48 kHz Профессиональный многоголосый - (Amalgama)
    Аудио 2: Русский DTS 6 ch 1510 kbps 48 kHz - Профессиональный многоголосый закадровый - (Кармен Фильм)
    Аудио 3: Русский AC3 2 ch 192 kbps 48 kHz - Профессиональный многоголосый закадровый - (Видеосервис)
    Аудио 4: Русский AC3 2 ch 192 kbps 48 kHz - Профессиональный двухголосый закадровый - (ТНТ / НТВ )
    Аудио 5: Русский AC3 2 ch 192 kbps 48 kHz - Профессиональный двухголосый закадровый - (Селена Интернешнл)
    Аудио 6: Русский AC3 2 ch 224 kbps 48 kHz - Авторский одноголосый закадровый - (Л.Володарский)
    Аудио 7: Русский AC3 2 ch 192 kbps 48 kHz - Авторский одноголосый закадровый- (А.Багичев)
    Аудио 8: Русский AC3 2 ch 224 kbps 48 kHz - Авторский одноголосый закадровый - (Г.Либергал)
    Аудио 9: Русский AC3 2 ch 224 kbps 48 kHz - Авторский одноголосый закадровый - (Ю.Живов)
    Аудио 10: Французский DTS-HD MA 2.0 1576 kbps 48 kHz 16 bit
    Субтитры 1: русские (Amalgama)
    Субтитры 2: русские (Кармен Фильм)
    Субтитры 3: русские (Видеосервис)
    Субтитры 4: английские
    ---------------------------------------------------

    За исходник, большое спасибо BLUEBIRD
    Сохранены оригинальные чаптеры как на Blu-Ray

    Инфо-файл

    Общее
    Уникальный идентификатор : 219091001952560258985519158298854904218 (0xA4D364620467609C9AB30DD97E75519A)
    Полное имя : D:ЗагрузкиSubway.1985.BDRemux.(1080p).ExKinoRay.mkv
    Формат : Matroska
    Версия формата : Version 2
    Размер файла : 21,5 Гбайт
    Продолжительность : 1 ч. 42 м.
    Режим общего битрейта : Переменный
    Общий поток : 30,0 Мбит/сек
    Название фильма : Подземка.1985.Сборкa: ollan
    Дата кодирования : UTC 2014-02-23 16:12:40
    Программа кодирования : mkvmerge v5.6.0 (;Kenya Kane;) built on May 27 2012 16:44:04
    Библиотека кодирования : libebml v1.2.3 libmatroska v1.3.0

    Видео
    Идентификатор : 1
    Формат : AVC
    Формат/Информация : Advanced Video Codec
    Профиль формата : High@L4.1
    Параметр CABAC формата : Да
    Параметр ReFrames формата : 4 кадра
    Параметр GOP формата : M=3, N=24
    Идентификатор кодека : V_MPEG4/ISO/AVC
    Продолжительность : 1 ч. 42 м.
    Вид битрейта : Переменный
    Максимальный битрейт : 33,0 Мбит/сек
    Ширина : 1920 пикселей
    Высота : 1080 пикселей
    Соотношение сторон : 16:9
    Режим частоты кадров : Постоянный
    Частота кадров : 24,000 кадра/сек
    Стандарт вещания : NTSC
    Цветовое пространство : YUV
    Субдискретизация насыщенности : 4:2:0
    Битовая глубина : 8 бит
    Тип развёртки : Прогрессивная
    Default : Да
    Forced : Нет
    Основные цвета : BT.709
    Характеристики трансфера : BT.709
    Коэффициенты матрицы : BT.709

    Аудио #1
    Идентификатор : 2
    Формат : AC-3
    Формат/Информация : Audio Coding 3
    Расширение режима : CM (complete main)
    Параметр Endianness формата : Big
    Идентификатор кодека : A_AC3
    Продолжительность : 1 ч. 42 м.
    Вид битрейта : Постоянный
    Битрейт : 448 Кбит/сек
    Каналы : 5 каналов
    Расположение каналов : Front: L C R, Side: L R
    Частота : 48,0 КГц
    Битовая глубина : 16 бит
    Метод сжатия : С потерями
    Размер потока : 328 Мбайт (1%)
    Заголовок : Профессиональный многоголосый (Амальгама)
    Язык : Russian
    Default : Да
    Forced : Нет

    Аудио #2
    Идентификатор : 3
    Формат : DTS
    Формат/Информация : Digital Theater Systems
    Режим : 16
    Параметр Endianness формата : Big
    Идентификатор кодека : A_DTS
    Продолжительность : 1 ч. 42 м.
    Вид битрейта : Постоянный
    Битрейт : 1510 Кбит/сек
    Каналы : 6 каналов
    Расположение каналов : Front: L C R, Side: L R, LFE
    Частота : 48,0 КГц
    Битовая глубина : 16 бит
    Метод сжатия : С потерями
    Размер потока : 1,08 Гбайт (5%)
    Заголовок : Профессиональный многоголосый (Кармен Фильм)
    Язык : Russian
    Default : Нет
    Forced : Нет

    Аудио #3
    Идентификатор : 4
    Формат : AC-3
    Формат/Информация : Audio Coding 3
    Расширение режима : CM (complete main)
    Параметр Endianness формата : Big
    Идентификатор кодека : A_AC3
    Продолжительность : 1 ч. 42 м.
    Вид битрейта : Постоянный
    Битрейт : 192 Кбит/сек
    Каналы : 2 канала
    Расположение каналов : Front: L R
    Частота : 48,0 КГц
    Битовая глубина : 16 бит
    Метод сжатия : С потерями
    Размер потока : 141 Мбайт (1%)
    Заголовок : Профессиональный многоголосый (Видеосервис)
    Язык : Russian
    Default : Нет
    Forced : Нет

    Аудио #4
    Идентификатор : 5
    Формат : AC-3
    Формат/Информация : Audio Coding 3
    Расширение режима : CM (complete main)
    Параметр Endianness формата : Big
    Идентификатор кодека : A_AC3
    Продолжительность : 1 ч. 42 м.
    Вид битрейта : Постоянный
    Битрейт : 192 Кбит/сек
    Каналы : 2 канала
    Расположение каналов : Front: L R
    Частота : 48,0 КГц
    Битовая глубина : 16 бит
    Метод сжатия : С потерями
    Размер потока : 141 Мбайт (1%)
    Заголовок : Профессиональный двухголосый (ТНТ / НТВ )
    Язык : Russian
    Default : Нет
    Forced : Нет

    Аудио #5
    Идентификатор : 6
    Формат : AC-3
    Формат/Информация : Audio Coding 3
    Расширение режима : CM (complete main)
    Параметр Endianness формата : Big
    Идентификатор кодека : A_AC3
    Продолжительность : 1 ч. 42 м.
    Вид битрейта : Постоянный
    Битрейт : 192 Кбит/сек
    Каналы : 2 канала
    Расположение каналов : Front: L R
    Частота : 48,0 КГц
    Битовая глубина : 16 бит
    Метод сжатия : С потерями
    Размер потока : 141 Мбайт (1%)
    Заголовок : Профессиональный двухголосый (Селена Интернешнл)
    Default : Нет
    Forced : Нет

    Аудио #6
    Идентификатор : 7
    Формат : AC-3
    Формат/Информация : Audio Coding 3
    Расширение режима : CM (complete main)
    Параметр Endianness формата : Big
    Идентификатор кодека : A_AC3
    Продолжительность : 1 ч. 42 м.
    Вид битрейта : Постоянный
    Битрейт : 224 Кбит/сек
    Каналы : 2 канала
    Расположение каналов : Front: L R
    Частота : 48,0 КГц
    Битовая глубина : 16 бит
    Метод сжатия : С потерями
    Размер потока : 164 Мбайт (1%)
    Заголовок : Авторский (Володарский)
    Язык : Russian
    Default : Нет
    Forced : Нет

    Аудио #7
    Идентификатор : 8
    Формат : AC-3
    Формат/Информация : Audio Coding 3
    Расширение режима : CM (complete main)
    Параметр Endianness формата : Big
    Идентификатор кодека : A_AC3
    Продолжительность : 1 ч. 42 м.
    Вид битрейта : Постоянный
    Битрейт : 224 Кбит/сек
    Каналы : 2 канала
    Расположение каналов : Front: L R
    Частота : 48,0 КГц
    Битовая глубина : 16 бит
    Метод сжатия : С потерями
    Размер потока : 164 Мбайт (1%)
    Заголовок : Авторский (Багичев)
    Язык : Russian
    Default : Нет
    Forced : Нет

    Аудио #8
    Идентификатор : 9
    Формат : AC-3
    Формат/Информация : Audio Coding 3
    Расширение режима : CM (complete main)
    Параметр Endianness формата : Big
    Идентификатор кодека : A_AC3
    Продолжительность : 1 ч. 42 м.
    Вид битрейта : Постоянный
    Битрейт : 224 Кбит/сек
    Каналы : 2 канала
    Расположение каналов : Front: L R
    Частота : 48,0 КГц
    Битовая глубина : 16 бит
    Метод сжатия : С потерями
    Размер потока : 164 Мбайт (1%)
    Заголовок : Авторский (Либергал)
    Язык : Russian
    Default : Нет
    Forced : Нет

    Аудио #9
    Идентификатор : 10
    Формат : AC-3
    Формат/Информация : Audio Coding 3
    Расширение режима : CM (complete main)
    Параметр Endianness формата : Big
    Идентификатор кодека : A_AC3
    Продолжительность : 1 ч. 42 м.
    Вид битрейта : Постоянный
    Битрейт : 224 Кбит/сек
    Каналы : 2 канала
    Расположение каналов : Front: L R
    Частота : 48,0 КГц
    Битовая глубина : 16 бит
    Метод сжатия : С потерями
    Размер потока : 164 Мбайт (1%)
    Заголовок : Авторский (Живов)
    Язык : Russian
    Default : Нет
    Forced : Нет

    Аудио #10
    Идентификатор : 11
    Формат : DTS
    Формат/Информация : Digital Theater Systems
    Профиль формата : MA / Core
    Режим : 16
    Параметр Endianness формата : Big
    Идентификатор кодека : A_DTS
    Продолжительность : 1 ч. 42 м.
    Вид битрейта : Переменный
    Битрейт : Неизвестно / 1509 Кбит/сек
    Каналы : 2 канала
    Расположение каналов : Front: L R
    Частота : 48,0 КГц
    Битовая глубина : 16 бит
    Метод сжатия : Без потерь / Lossy
    Язык : French
    Default : Нет
    Forced : Нет

    Текст #1
    Идентификатор : 12
    Формат : UTF-8
    Идентификатор кодека : S_TEXT/UTF8
    Идентификатор кодека/Информация : UTF-8 Plain Text
    Заголовок : Амальгама
    Язык : Russian
    Default : Нет
    Forced : Нет

    Текст #2
    Идентификатор : 13
    Формат : UTF-8
    Идентификатор кодека : S_TEXT/UTF8
    Идентификатор кодека/Информация : UTF-8 Plain Text
    Заголовок : Кармен Фильм
    Язык : Russian
    Default : Нет
    Forced : Нет

    Текст #3
    Идентификатор : 14
    Формат : UTF-8
    Идентификатор кодека : S_TEXT/UTF8
    Идентификатор кодека/Информация : UTF-8 Plain Text
    Заголовок : Видеосервис
    Язык : Russian
    Default : Нет
    Forced : Нет

    Текст #4
    Идентификатор : 15
    Формат : UTF-8
    Идентификатор кодека : S_TEXT/UTF8
    Идентификатор кодека/Информация : UTF-8 Plain Text
    Язык : English
    Default : Нет
    Forced : Нет

    Меню
    00:00:00.000 : :Chapter 01
    00:07:56.291 : :Chapter 02
    00:17:20.500 : :Chapter 03
    00:26:27.916 : :Chapter 04
    00:35:53.625 : :Chapter 05
    00:44:32.458 : :Chapter 06
    00:53:11.500 : :Chapter 07
    00:59:44.125 : :Chapter 08
    01:11:41.750 : :Chapter 09
    01:18:51.875 : :Chapter 10
    01:29:15.291 : :Chapter 11
    01:32:34.125 : :Chapter 12



    Скриншоты для ознакомления







    Релиз подготовил: Сборка:
    Размер скачиваемого торрента: 21.49 GB (23073734344 Bytes)

    Подземка / Subway (1985) BDRemux 1080p от ExKinoRay | P, P2, A | Лицензия скачать через торрент бесплатно
    загрузка...
    Рейтинг →
     (голосов: 1, оценка 5/5, голосовать можно 1 раз )

    Другие торренты по теме:

  • Подземка / Subway (1985) BDRip от HQ-ViDEO
  • Подземка / Subway (1985) BDRip 720p от MediaClub скачать через торрент бесплатно
  • Подземка / Underground (2016) HDTV 720p | Sunshine Studio
  • Подземка / Underground (2016) WEB-DLRip | BaibaKo
  • Подземка / Underground (2016) HDTVRip | Sunshine Studio
  • Подземка / Underground [S01] (2016)


    • Комментарии (0):

      Информация

      Информация

        Посетители, находящиеся в группе Гости, не могут оставлять комментарии в данной новости.

        ↓ Меню



        ↓ Опрос

        А Вы добавили сайт в закладки?
        Да
        Не


        Top 10 за месяц (Фильмы)