.
Авторизация | Регистрация
Хочешь лучшие торренты? Добавь свой email!
Добавить
» » План побега / Escape Plan (2013) BDRip-AVC | Гаврилов скачать торрент бесплатно




    План побега / Escape Plan (2013) BDRip-AVC | Гаврилов скачать торрент бесплатно

    Опубликовал: Админ | Дата: 27-02-2015, 11:10 | Просмотров: 353


    Из самой надежной тюрьмы в одиночку убежать невозможно


    Русское название: План побега
    Русское название в мировом прокате: Escape Plan
    Создали в: 2013
    Категория жанра: Боевик, триллер, детектив
    Снималось в: США, Atmosphere Entertainment MM LLC, Boies/Schiller Film Group, Emmett/Furla Films, Envision Entertainment Corporation, Spiderwood Productions
    Время просмотра: 01:55:35
    Перевод текста: Авторский (одноголосый закадровый) А.Гаврилов
    Субтитры: Английские

    Главный режиссер: Микаэль Хофстрём

    Актеры: Сильвестр Сталлоне, Арнольд Шварценеггер, Джеймс Кэвизел, Фифти Сент, Винни Джонс, Винсент Д`Онофрио, Эми Райан, Сэм Нилл, Каитриона Бэлфи, Фаран Таир

    Сюжет фильма:
    Один из самых выдающихся мировых специалистов по системам безопасности соглашается на последнюю рисковую операцию: сбежать из суперсекретной высокотехнологичной тюрьмы, которую называют Гробницей. Преданный Рэй Бреслин вынужден прибегнуть к помощи напарника — заключенного Эмиля Ротмайера, чтобы разработать отчаянный и практически неосуществимый план побега из самой защищенной тюрьмы в мире!



    Качество фильма: BDRip-AVC
    Информация о видео: MPEG-4 AVC, 1800 Кбит/с, 1024x426
    Информация о звуке: Русский, английский (AC3, 6 ch, 448 Кбит/с)

    MediaInfo
    Format : Matroska
    Format version : Version 2
    File size : 2.18 GiB
    Duration : 1h 55mn
    Overall bit rate : 2 696 Kbps
    Encoded date : UTC 2014-02-18 23:25:27
    Writing application : mkvmerge v5.3.0 (;I could have danced;) built on Feb 9 2012 10:38:07
    Writing library : libebml v1.2.3 libmatroska v1.3.0
    Attachment : Yes

    Video
    ID : 1
    Format : AVC
    Format/Info : Advanced Video Codec
    Format profile : High@L4.1
    Format settings, CABAC : Yes
    Format settings, ReFrames : 10 frames
    Codec ID : V_MPEG4/ISO/AVC
    Duration : 1h 55mn
    Bit rate : 1 800 Kbps
    Width : 1 024 pixels
    Height : 426 pixels
    Display aspect ratio : 2.40:1
    Frame rate mode : Constant
    Frame rate : 23.976 fps
    Color space : YUV
    Chroma subsampling : 4:2:0
    Bit depth : 8 bits
    Scan type : Progressive
    Bits/(Pixel*Frame) : 0.172
    Stream size : 1.41 GiB (65%)
    Writing library : x264 core 130 r2273 b3065e6
    Encoding settings : cabac=1 / ref=10 / deblock=1:-2:-2 / analyse=0x3:0x113 / me=umh / subme=11 / psy=1 / psy_rd=1.00:0.20 / mixed_ref=1 / me_range=64 / chroma_me=1 / trellis=2 / 8x8dct=1 / cqm=0 / deadzone=21,11 / fast_pskip=0 / chroma_qp_offset=-3 / threads=6 / lookahead_threads=1 / sliced_threads=0 / nr=0 / decimate=0 / interlaced=0 / bluray_compat=0 / constrained_intra=0 / bframes=12 / b_pyramid=2 / b_adapt=2 / b_bias=0 / direct=3 / weightb=1 / open_gop=0 / weightp=2 / keyint=240 / keyint_min=23 / scenecut=40 / intra_refresh=0 / rc=2pass / mbtree=0 / bitrate=1800 / ratetol=1.0 / qcomp=0.60 / qpmin=0 / qpmax=69 / qpstep=4 / cplxblur=20.0 / qblur=0.5 / ip_ratio=1.40 / pb_ratio=1.30 / aq=1:0.80
    Language : English
    Default : Yes
    Forced : No
    Matrix coefficients : BT.709

    Audio #1
    ID : 2
    Format : AC-3
    Format/Info : Audio Coding 3
    Mode extension : CM (complete main)
    Format settings, Endianness : Big
    Codec ID : A_AC3
    Duration : 1h 55mn
    Bit rate mode : Constant
    Bit rate : 448 Kbps
    Channel(s) : 6 channels
    Channel positions : Front: L C R, Side: L R, LFE
    Sampling rate : 48.0 KHz
    Bit depth : 16 bits
    Compression mode : Lossy
    Stream size : 370 MiB (17%)
    Title : Авторский А.Гаврилов
    Language : Russian
    Default : No
    Forced : No

    Audio #2
    ID : 3
    Format : AC-3
    Format/Info : Audio Coding 3
    Mode extension : CM (complete main)
    Format settings, Endianness : Big
    Codec ID : A_AC3
    Duration : 1h 55mn
    Bit rate mode : Constant
    Bit rate : 448 Kbps
    Channel(s) : 6 channels
    Channel positions : Front: L C R, Side: L R, LFE
    Sampling rate : 48.0 KHz
    Bit depth : 16 bits
    Compression mode : Lossy
    Stream size : 370 MiB (17%)
    Language : English
    Default : No
    Forced : No

    Text
    ID : 4
    Format : UTF-8
    Codec ID : S_TEXT/UTF8
    Codec ID/Info : UTF-8 Plain Text
    Title : SDH
    Language : English
    Default : No
    Forced : No

    Menu
    00:00:00.000 : :Chapter 01
    00:06:33.643 : :Chapter 02
    00:15:40.939 : :Chapter 03
    00:19:50.439 : :Chapter 04
    00:26:22.706 : :Chapter 05
    00:33:08.111 : :Chapter 06
    00:39:14.310 : :Chapter 07
    00:45:41.697 : :Chapter 08
    00:50:07.170 : :Chapter 09
    00:58:59.494 : :Chapter 10
    01:06:44.834 : :Chapter 11
    01:13:51.134 : :Chapter 12
    01:21:04.359 : :Chapter 13
    01:27:58.523 : :Chapter 14
    01:35:35.187 : :Chapter 15
    01:42:14.878 : :Chapter 16
    01:55:35.511 : :Chapter 17

    Спасибо!
    За перевод Гаврилова спасибо пользователям Клуба переводов новинок и классики у Гаврилова:
    Denis2251, Wolf_Larsen, chefchef, shtift, rydanes, Pain_70, Tehnar, Xerman13, carter64, feldeger, SavineX, Letyoha3, _MyxAmoP_ , fly32, milocerd0v, Диммон, dunhill200, edsz, Loki, Guyver , nimph, KpucTo161, v111o, -Джосс-, foxlight, Role, Luka69, Brown15, therox, saenwert , Rolly Tyler, Hattori Hanzo, audiolubitel, Gross1978, GaryH, dwser, Jiraya87, Iron Man, ZeRoNe, Shumway, mamachucha66, Aladdin, denis_mgn_1987, DrCrane.
    Скриншоты для ознакомления

    Размер скачиваемого торрента: 2.18 GB (2337314177 Bytes)

    План побега / Escape Plan (2013) BDRip-AVC | Гаврилов торрент скачать бесплатно
    загрузка...
    Рейтинг →
     (голосов: 1, оценка 3/5, голосовать можно 1 раз )

    Другие торренты по теме:

  • План побега / Escape Plan (2013) HD 720p | L1 | Трейлер
  • План побега (2013)
  • План побега / Escape Plan (2013) CAMRip
  • OST - План побега / Escape Plan (2013) MP3
  • План побега / Escape Plan (2013) TS
  • План побега / Escape Plan (2013) WEBRip-AVC | Звук с TS
  • План побега / Escape Plan (2013) WEBRip | Звук с TS скачать через торрент бесплатно
  • План побега / Escape Plan (2013) HDTVRip | Звук с TS скачать через торрент бесплатно


    • Комментарии (0):

      Информация

      Информация

        Посетители, находящиеся в группе Гости, не могут оставлять комментарии в данной новости.

        ↓ Меню



        ↓ Опрос

        А Вы добавили сайт в закладки?
        Да
        Не


        Top 10 за месяц (Фильмы)