.
Авторизация | Регистрация
Хочешь лучшие торренты? Добавь свой email!
Добавить
» » Тор 2: Царство тьмы / Thor: The Dark World (2013) DVD9 скачать торрент бесплатно




    Тор 2: Царство тьмы / Thor: The Dark World (2013) DVD9 скачать торрент бесплатно

    Опубликовал: Админ | Дата: 27-02-2015, 11:10 | Просмотров: 764



    Создали в: 2013
    Создали в: США / Marvel Entertainment, Marvel Studios Inc.
    Категория жанра: Фэнтези, боевик, приключения
    Перевод текста: Дублированный лицензия
    Субтитры: Вшитые отключаемые
    Язык субтитров: Русский(форсированные), русский, английский

    Главный режиссер: Алан Тейлор
    Продюсеры: Кевин Файги, Виктория Алонсо, Луис Д’Эспозито
    Актеры: Крис Хемсворт, Натали Портман, Том Хиддлстон, Энтони Хопкинс, Джейми Александер, Рэй Стивенсон, Кэт Деннингс, Идрис Эльба, Стеллан Скарсгард, Рене Руссо, Кристофер Экклстон, Стэн Ли

    Сюжет фильма:
    Продолжение приключений одного из членов команды Мстителей, скандинавского бога Тора, которому на этот раз в одиночку предстоит защитить Землю и все девять миров от нашествия неизвестного врага.

    Могучему Тору предстоит вновь сразиться за восстановление порядка в галактике, встретившись лицом к лицу с древней инопланетной расой, ведомой злодеем Малекитом, жаждущим установить в девяти мирах власть тьмы. Столкнувшись с врагом, более могущественным чем сам Один и всё воинство Асгарда, Тор должен собрать силы для решающей битвы. Его ждёт опасное путешествие и долгожданная встреча со своей земной возлюбленной Джейн Фостер. Сможет ли Тор рискнуть самым дорогим, чтобы не дать тьме воцариться на просторах вселенной?

    Дата мировой премьеры: 30 октября 2013
    Дата российской премьеры: 7 ноября 2013, WDSSPR
    Дата выхода DVD/Blu-Ray релиза: 25 февраля 2014, Уолт Дисней Компани СНГ
    Время просмотра: 01:51:57
    Качество фильма видео: DVD9

    Информация о видео: MPEG-2, 720x480@853x480 (NTSC 16:9), ~8553 Кбит/сек
    Информация о звуке 1: AC3 5.1, 448 Кбит/сек Русский - дублированный
    Информация о звуке 2: AC3 5.1, 448 Кбит/сек Английский - оригинал

    Дополнительные материалы: Отсутствуют
    DVDinfo:
    Title: Локальный диск
    Size: 7.75 Gb ( 8 122 766 KBytes ) - DVD-9
    Enabled regions: 1, 2, 3, 4, 5, 6, 7, 8

    VTS_01 :
    Play Length: 01:51:57
    Video: NTSC 16:9 (720x480) VBR, Auto PanScan
    Audio:
    Russian (Dolby AC3, 6 ch)
    English (Dolby AC3, 6 ch)
    Subtitles:
    Russian
    Russian
    English

    Menu Video:
    NTSC 16:9 (720x480) VBR
    Auto Letterboxed
    Menu Audio:
    Not specified (LinearPCM, 2 ch)
    Menu Subtitles:
    Not specified
    Menu English Language Unit :
    Root Menu
    Chapter (PTT) Menu
    Mediainfo:
    Общее
    Полное имя : D:ВидеоThor. The Dark World (2013) DVD9 BD - DVDVIDEO_TSVTS_01_1.VOB
    Формат : MPEG-PS
    Размер файла : 1000 Мбайт
    Продолжительность : 14 м.
    Режим общего битрейта : Переменный
    Общий поток : 9641 Кбит/сек

    Видео
    Идентификатор : 224 (0xE0)
    Формат : MPEG Video
    Версия формата : Version 2
    Профиль формата : Main@Main
    Параметр BVOP формата : Да
    Параметр матрицы формата : Выборочная
    Параметр GOP формата : Variable
    Продолжительность : 14 м.
    Вид битрейта : Переменный
    Битрейт : 8553 Кбит/сек
    Максимальный битрейт : 8900 Кбит/сек
    Ширина : 720 пикселей
    Высота : 480 пикселей
    Соотношение сторон : 16:9
    Частота кадров : 23,976 кадра/сек
    Стандарт вещания : NTSC
    Цветовое пространство : YUV
    Субдискретизация насыщенности : 4:2:0
    Битовая глубина : 8 бит
    Тип развёртки : Прогрессивная
    Порядок развёртки : 2:3 Pulldown
    Метод сжатия : С потерями
    Бит/(Пиксели*Кадры) : 1.032
    Временной код первого кадра : 00:00:00:00
    Оригинал временного кода : Group of pictures t_head
    Размер потока : 887 Мбайт (89%)

    Аудио #1
    Идентификатор : 189 (0xBD)-128 (0x80)
    Формат : AC-3
    Формат/Информация : Audio Coding 3
    Расширение режима : CM (complete main)
    Параметр Endianness формата : Big
    Режим смешивания : DVD-Video
    Продолжительность : 14 м.
    Вид битрейта : Постоянный
    Битрейт : 448 Кбит/сек
    Каналы : 6 каналов
    Расположение каналов : Front: L C R, Side: L R, LFE
    Частота : 48,0 КГц
    Битовая глубина : 16 бит
    Метод сжатия : С потерями
    Размер потока : 46,5 Мбайт (5%)

    Аудио #2
    Идентификатор : 189 (0xBD)-129 (0x81)
    Формат : AC-3
    Формат/Информация : Audio Coding 3
    Расширение режима : CM (complete main)
    Параметр Endianness формата : Big
    Режим смешивания : DVD-Video
    Продолжительность : 14 м.
    Вид битрейта : Постоянный
    Битрейт : 448 Кбит/сек
    Каналы : 6 каналов
    Расположение каналов : Front: L C R, Side: L R, LFE
    Частота : 48,0 КГц
    Битовая глубина : 16 бит
    Метод сжатия : С потерями
    Размер потока : 46,5 Мбайт (5%)

    Текст #1
    Идентификатор : 189 (0xBD)-34 (0x22)
    Формат : RLE
    Формат/Информация : Run-length encoding
    Режим смешивания : DVD-Video

    Текст #2
    Идентификатор : 189 (0xBD)-35 (0x23)
    Формат : RLE
    Формат/Информация : Run-length encoding
    Режим смешивания : DVD-Video

    Текст #3
    Идентификатор : 189 (0xBD)-36 (0x24)
    Формат : RLE
    Формат/Информация : Run-length encoding
    Режим смешивания : DVD-Video

    Текст #4
    Идентификатор : 189 (0xBD)-37 (0x25)
    Формат : RLE
    Формат/Информация : Run-length encoding
    Режим смешивания : DVD-Video

    Меню

    Доп. информация:
    Исходник Blu-Ray (CCE).
    Меню анимированное,(созданное полностью с нуля) озвученное, без динамических переходов.
    Обработка производилась:
    PhotoShop - работа над меню,
    tsMuxer: - демуксинг m2ts,
    AVISynth, Carbon Coder: - работа с видео,
    BeHappy, Sony Vegas: - работа со звуком,
    Sony Vegas: - синхронизация аудио и видео,
    DVD Architect: - создание DVD.
    Работоспособность проверена на софтовом плеере Windows Media, PowerDVD и бытовом BBK.
    Скриншоты для ознакомления меню:

    Скриншоты для ознакомления:

    За DVD9 спасибо большое vlad19662 ®
    Залил: Саша 1992
    Размер скачиваемого торрента: 7.75 GB (8317712384 Bytes)

    Тор 2: Царство тьмы / Thor: The Dark World (2013) DVD9 торрент скачать бесплатно
    загрузка...
    Рейтинг →
     (голосов: 1, оценка 4/5, голосовать можно 1 раз )

    Другие торренты по теме:

  • Василий Сахаров - Принц Тор 2. Принц Тор (2017) MP3
  • Тор 2 Царство тьмы (2013)
  • Тор 2: Царство тьмы / Thor: The Dark World (2013) DCPrip | 3D-Video | Трейлер скачать через торрент бесплатно
  • Тор 2: Царство тьмы / Thor: The Dark World (2013) HDTVRip 1080p | Трейлер скачать через торрент бесплатно
  • Тор 2: Царство тьмы / Thor: The Dark World (2013) TS
  • Тор 2: Царство тьмы / Thor: The Dark World (2013) WEBRip-AVC | Звук с TS скачать через торрент бесплатно
  • Тор 2: Царство тьмы / Thor: The Dark World (2013) WEBRip | Звук с TS скачать через торрент бесплатно
  • Тор 2: Царство тьмы / Thor: The Dark World (2013) WEB-DL 720p | Звук с TS скачать через торрент бесплатно


    • Комментарии (0):

      Информация

      Информация

        Посетители, находящиеся в группе Гости, не могут оставлять комментарии в данной новости.

        ↓ Меню



        ↓ Опрос

        А Вы добавили сайт в закладки?
        Да
        Не


        Top 10 за месяц (Фильмы)