.
Авторизация | Регистрация
Хочешь лучшие торренты? Добавь свой email!
Добавить
» » Олдбой / Oldboy (2013) BDRip-AVC | iPhone | D скачать торрент бесплатно




    Олдбой / Oldboy (2013) BDRip-AVC | iPhone | D скачать торрент бесплатно

    Опубликовал: Админ | Дата: 27-02-2015, 11:10 | Просмотров: 409



    Олдбой / Oldboy (2013) BDRip-AVC | iPhone | D

    Русское название: Олдбой
    Русское название в мировом прокате: Oldboy
    Создали в: 2013
    Категория жанра: триллер, драма, детектив, боевик
    Главный режиссер: Спайк Ли
    Актеры: Джош Бролин, Элизабет Олсен, Шарлто Копли, Сэмюэл Л. Джексон, Майкл Империоли, Пом Клементьефф, Джеймс Рэнсон, Макс Казелла, Линда Эмонд, Элвис Ноласко

    Сюжет фильма:
    Фильм рассказывает о рекламщике, которого некто похитил и 20 лет продержал в одиночной камере, никак не объясняя своих мотивов. Столь же неожиданно получив однажды свободу, он решает разыскать того, кто организовал его похищение, и обнаруживает, что неизвестный злодей продолжает мучить его загадками. Погоня за местью приводит его к юной социальной работнице и некоему человеку, в руках которого якобы находится ключ к его спасению.



    Снималось в: США
    Киностудия: 40 Acres a Mule Filmworks, Good Universe, Vertigo Entertainment

    Время просмотра: 01:43:37
    Перевод текста: Русский дублированный

    Файл
    Кодек для видео: H.264
    Качество фильма: BDRip-AVC 480p iPhone
    Информация о видео: 640x356@852x356 (2.40:1) at 23.976 fps, AVC at 1800 kbps
    Информация о звуке:
    1: 48 kHz, AAC 2.0, 192 kbps - Русский дублированный
    Субтитры: Отсутствуют

    Media Info

    General
    Complete name : C:CREATE480outOld Boy.2013 (SD).m4v
    Format : MPEG-4
    Codec ID : M4V
    File size : 1.44 GiB
    Duration : 1h 43mn
    Overall bit rate mode : Variable
    Overall bit rate : 1 995 Kbps
    Movie name : Олдбой
    Performer : Спайк Ли
    Genre : Action Adventure
    Recorded date : UTC 2013-11-27 08:00:00
    Encoded date : UTC 2014-02-19 06:51:48
    Tagged date : UTC 2014-02-19 07:11:42
    Copyright : © Universal Pictures International (UPI)
    Cover : Yes
    Comment : Загадка не в том, почему тебя лишили свободы, а почему тебе её вернули
    sonm : Oldboy
    desc : Фильм рассказывает о рекламщике, которого некто похитил и 20 лет продержал в одиночной камере, никак не объясняя своих мотивов. Столь же неожиданно получив однажды свободу, он решает разыскать того, кто организовал его похищение.
    ldes : Фильм рассказывает о рекламщике, которого некто похитил и 20 лет продержал в одиночной камере, никак не объясняя своих мотивов. Столь же неожиданно получив однажды свободу, он решает разыскать того, кто организовал его похищение, и обнаруживает, что неизвестный злодей продолжает мучить его загадками. Погоня за местью приводит его к юной социальной работнице и некоему человеку, в руках которого якобы находится ключ к его спасению.
    stik : 9
    rtng : 0
    cnID : 766886684
    xid : Apple:vendor_id:2013-431323
    iTunEXTC : mpaa|R|400|

    Video #1
    ID : 1
    Format : AVC
    Format/Info : Advanced Video Codec
    Format profile : Baseline@L3.0
    Format settings, CABAC : No
    Format settings, ReFrames : 2 frames
    Codec ID : avc1
    Codec ID/Info : Advanced Video Coding
    Duration : 1h 43mn
    Bit rate : 1 800 Kbps
    Maximum bit rate : 7 395 Kbps
    Width : 640 pixels
    Height : 356 pixels
    Display aspect ratio : 2.40:1
    Frame rate mode : Constant
    Frame rate : 24.000 fps
    Color space : YUV
    Chroma subsampling : 4:2:0
    Bit depth : 8 bits
    Scan type : Progressive
    Bits/(Pixel*Frame) : 0.329
    Stream size : 1.30 GiB (90%)
    Title : Oldboy _2013_
    Writing library : x264 core 140 r2377 40 929f149 tMod 8-bit@4:2:0 X86_64
    Encoding settings : cabac=0 / ref=2 / deblock=1:-2:-2 / analyse=0x1:0x131 / me=umh / subme=7 / psy=1 / fade_compensate=0.10 / psy_rd=1.00:0.10 / mixed_ref=1 / me_range=48 / chroma_me=1 / trellis=2 / 8x8dct=0 / cqm=0 / deadzone=21,11 / fast_pskip=0 / chroma_qp_offset=-3 / threads=12 / lookahead_threads=2 / sliced_threads=0 / nr=0 / decimate=0 / interlaced=0 / bluray_compat=0 / constrained_intra=0 / fgo=0 / bframes=0 / weightp=0 / keyint=250 / keyint_min=23 / scenecut=40 / intra_refresh=0 / rc_lookahead=120 / rc=2pass / mbtree=1 / bitrate=1800 / ratetol=1.0 / qcomp=0.60 / qpmin=0:0:0 / qpmax=69:69:69 / qpstep=4 / cplxblur=20.0 / qblur=0.5 / vbv_maxrate=5000 / vbv_bufsize=5000 / nal_hrd=none / filler=0 / ip_ratio=1.40 / aq=4:0.90 / aq-sensitivity=10.00 / aq-factor=1.00:0.90:0.90 / aq2=0 / aq3=0
    Language : English
    Encoded date : UTC 2014-02-19 06:51:48
    Tagged date : UTC 2014-02-19 06:52:16
    Matrix coefficients : BT.709

    Video #2
    ID : 4
    Format : JPEG
    Codec ID : jpeg
    Duration : 1h 43mn
    Bit rate mode : Variable
    Bit rate : 575 bps
    Width : 640 pixels
    Height : 267 pixels
    Display aspect ratio : 2.40:1
    Frame rate mode : Constant
    Frame rate : 0.002 fps
    Color space : YUV
    Chroma subsampling : 4:2:0
    Bit depth : 8 bits
    Compression mode : Lossy
    Bits/(Pixel*Frame) : 1.682
    Stream size : 421 KiB (0%)
    Language : English
    Encoded date : UTC 2014-02-19 07:11:21
    Tagged date : UTC 2014-02-19 07:11:21

    Audio
    ID : 2
    Format : AAC
    Format/Info : Advanced Audio Codec
    Format profile : LC
    Codec ID : 40
    Duration : 1h 43mn
    Bit rate mode : Variable
    Bit rate : 192 Kbps
    Maximum bit rate : 230 Kbps
    Channel(s) : 2 channels
    Channel positions : Front: L R
    Sampling rate : 48.0 KHz
    Compression mode : Lossy
    Stream size : 140 MiB (10%)
    Title : Dub
    Language : Russian
    Encoded date : UTC 2014-02-19 06:49:43
    Tagged date : UTC 2014-02-19 06:52:16

    Menu
    ID : 3
    Codec ID : text
    Duration : 1h 43mn
    Language : English
    Encoded date : UTC 2014-02-19 06:53:12
    Tagged date : UTC 2014-02-19 06:53:12
    Bit rate mode : CBR
    iTunes Meta Tags

    Sort Name: Oldboy
    XID: Apple:vendor_id:2013-431323
    contentID: 766886684
    Copyright: © Universal Pictures International (UPI)
    Screenwriters: Гарон Цучия, Нубаки Минегиши, Марк Протосевич
    Producers: Даг Дэвисон, Натан Каан, Ким Дон Чжу
    Director: Spike Lee
    Cast: Джош Бролин, Элизабет Олсен, Шарлто Копли, Сэмюэл Л. Джексон, Майкл Империоли, Пом Клементьефф, Джеймс Рэнсон, Макс Казелла, Линда Эмонд, Элвис Ноласко
    Studio: 40 Acres a Mule Filmworks, Good Universe, Vertigo Entertainment
    Rating: 5
    Long Deion: Фильм рассказывает о рекламщике, которого некто похитил и 20 лет продержал в одиночной камере, никак не объясняя своих мотивов. Столь же неожиданно получив однажды свободу, он решает разыскать того, кто организовал его похищение, и обнаруживает, что неизвестный злодей продолжает мучить его загадками. Погоня за местью приводит его к юной социальной работнице и некоему человеку, в руках которого якобы находится ключ к его спасению.
    Deion: Фильм рассказывает о рекламщике, которого некто похитил и 20 лет продержал в одиночной камере, никак не объясняя своих мотивов. Столь же неожиданно получив однажды свободу, он решает разыскать того, кто организовал его похищение.
    Release Date: 2013-11-27T08:00:00Z
    Genre: Action Adventure
    Comments: Загадка не в том, почему тебя лишили свободы, а почему тебе её вернули
    Artist: Спайк Ли
    Name: Олдбой
    x264 Log

    x264 info: frame I:1947 Avg QP:17.54 size: 28769
    x264 info: frame P:147256 Avg QP:20.97 size: 9116
    x264 info: mb I I16..4: 32.8% 0.0% 67.2%
    x264 info: mb P I16..4: 1.3% 0.0% 1.5% P16..4: 50.8% 18.2% 9.2% 1.4% 0.7% skip:16.9%
    x264 info: coded y,uvDC,uvAC intra: 56.3% 63.0% 33.3% inter: 43.4% 37.1% 14.1%
    x264 info: i16 v,h,dc,p: 47% 17% 11% 25%
    x264 info: i4 v,h,dc,ddl,ddr,vr,hd,vl,hu: 37% 13% 15% 6% 7% 8% 5% 7% 4%
    x264 info: i8c dc,h,v,p: 57% 14% 23% 6%
    x264 info: ref P L0: 70.5% 29.5%
    x264 info: kb/s:1799.56
    Скриншоты для ознакомления




    Залил: gekka
    Размер скачиваемого торрента: 1.44 GB (1550079739 Bytes)

    Олдбой / Oldboy (2013) BDRip-AVC | iPhone | D торрент скачать бесплатно
    загрузка...
    Рейтинг →
     (голосов: 1, оценка 3/5, голосовать можно 1 раз )

    Другие торренты по теме:

  • Олдбой / OldBoy (2003) BDRip 1080p от R.G. GoldenShara
  • Олдбой / Oldboy (2013) TS скачать через торрент бесплатно
  • Олдбой / Oldboy (2013) WEBRip
  • OST - Олдбой / Oldboy (2014) MP3 скачать через торрент бесплатно
  • Олдбой / Oldboy (2013) HDRip | Чистый звук
  • Олдбой / Oldboy (2013) HDRip от Scarabey | D | Чистый звук
  • Олдбой / Oldboy (2003) BDRip 1080p | D, P, P2 скачать через торрент бесплатно
  • Олдбой / Oldboy (2013) BDRip-AVC от MediaClub | Лицензия


    • Комментарии (0):

      Информация

      Информация

        Посетители, находящиеся в группе Гости, не могут оставлять комментарии в данной новости.

        ↓ Меню



        ↓ Опрос

        А Вы добавили сайт в закладки?
        Да
        Не


        Top 10 за месяц (Фильмы)