.
Авторизация | Регистрация
Хочешь лучшие торренты? Добавь свой email!
Добавить
» » Четыре комнаты / Four Rooms (1995) DVD5 | P скачать торрент бесплатно




    Четыре комнаты / Four Rooms (1995) DVD5 | P скачать торрент бесплатно

    Опубликовал: Админ | Дата: 27-02-2015, 11:10 | Просмотров: 254



    Детально о кино
    Русское название: Четыре комнаты
    Русское название в мировом прокате: Four Rooms
    Создали в: 1995
    Категория жанра: комедия
    Главный режиссер: Эллисон Андерс, Александр Рокуэлл, Роберт Родригес, Квентин Тарантино
    Актеры: Тим Рот, Айони Скай, Дженнифер Билз, Мадонна, Антонио Бандерас, Квентин Тарантино, Дэвид Провэл, Пол Кальдерон, Брюс Уиллис, Сэмми Дэвис

    Сюжет фильма:
    Озорная комедия состоит из четырех новелл (каждый режиссёр сделал по одной), связанных одним героем — коридорным Тедом, вышедшим на работу накануне Нового года.

    Он попадает на шабаш ведьм, чуть не погибает от руки ревнивого мужа, еле уносит ноги от шаловливых детишек гангстера, принимает участие в странном пари эксцентричных господ.

    Но, несмотря на все сомнительные приключения, коридорный сохраняет невозмутимость в любых, самых невероятных ситуациях.




    Снималось в: США
    Киностудия: A Band Apart, Miramax Films
    Время просмотра: 98 мин. / 01:38
    Перевод текста: профессиональный (многоголосый, закадровый)

    Файл
    Кодек для видео: MPEG2
    Качество фильма: DVD5
    Информация о видео: PAL 4:3 (720x576) VBR 5432 Kbps, 25.000 fps
    Информация о звуке: Dolby AC3, 6 ch, 48.0 KHz, 448 Kbps
    Субтитры: русские

    MediaInfo
    General
    Complete name : E:Four RoomsVIDEO_TSVTS_04_1.VOB
    Format : MPEG-PS
    File size : 1 024 MiB
    Duration : 22mn 10s
    Overall bit rate mode : Variable
    Overall bit rate : 6 456 Kbps

    Video
    ID : 224 (0xE0)
    Format : MPEG Video
    Format version : Version 2
    Format profile : Main@Main
    Format settings, BVOP : Yes
    Format settings, Matrix : Custom
    Format settings, GOP : M=3, N=12
    Duration : 22mn 10s
    Bit rate mode : Variable
    Bit rate : 5 432 Kbps
    Maximum bit rate : 9 600 Kbps
    Width : 720 pixels
    Height : 576 pixels
    Display aspect ratio : 4:3
    Frame rate : 25.000 fps
    Standard : PAL
    Color space : YUV
    Chroma subsampling : 4:2:0
    Bit depth : 8 bits
    Scan type : Interlaced
    Scan order : Top Field First
    Compression mode : Lossy
    Bits/(Pixel*Frame) : 0.524
    Time code of first frame : 00:01:02:01
    Time code source : Group of pictures t_head
    Stream size : 861 MiB (84%)

    Audio #1
    ID : 189 (0xBD)-128 (0x80)
    Format : AC-3
    Format/Info : Audio Coding 3
    Mode extension : CM (complete main)
    Format settings, Endianness : Big
    Muxing mode : DVD-Video
    Duration : 22mn 9s
    Bit rate mode : Constant
    Bit rate : 448 Kbps
    Channel(s) : 6 channels
    Channel positions : Front: L C R, Side: L R, LFE
    Sampling rate : 48.0 KHz
    Bit depth : 16 bits
    Compression mode : Lossy
    Delay relative to video : 264ms
    Stream size : 71.0 MiB (7%)

    Audio #2
    ID : 189 (0xBD)-129 (0x81)
    Format : AC-3
    Format/Info : Audio Coding 3
    Mode extension : CM (complete main)
    Format settings, Endianness : Big
    Muxing mode : DVD-Video
    Duration : 22mn 10s
    Bit rate mode : Constant
    Bit rate : 448 Kbps
    Channel(s) : 6 channels
    Channel positions : Front: L C R, Side: L R, LFE
    Sampling rate : 48.0 KHz
    Bit depth : 16 bits
    Compression mode : Lossy
    Delay relative to video : -80ms
    Stream size : 71.0 MiB (7%)

    Text
    ID : 189 (0xBD)-32 (0x20)
    Format : RLE
    Format/Info : Run-length encoding
    Muxing mode

    Menu

    Скриншоты для ознакомления

    Залил: carisha
    Размер скачиваемого торрента: 4.29 GB (4602574848 Bytes)

    Четыре комнаты / Four Rooms (1995) DVD5 | P торрент скачать бесплатно
    загрузка...
    Рейтинг →
     (голосов: 1, оценка 5/5, голосовать можно 1 раз )

    Другие торренты по теме:

  • Четыре комнаты / Four Rooms (1995) BDRip-AVC | iPad
  • Четыре комнаты / Four Rooms (1995) HDRip от Scarabey | Р
  • Четыре комнаты / Four Rooms (1995) HDRip от Scarabey | Р


    • Комментарии (0):

      Информация

      Информация

        Посетители, находящиеся в группе Гости, не могут оставлять комментарии в данной новости.

        ↓ Меню



        ↓ Опрос

        А Вы добавили сайт в закладки?
        Да
        Не


        Top 10 за месяц (Фильмы)