.
Авторизация | Регистрация
Хочешь лучшие торренты? Добавь свой email!
Добавить
» » Неприкасаемые / 1 1 / Intouchables (2011) DVD5 скачать торрент бесплатно




    Неприкасаемые / 1 1 / Intouchables (2011) DVD5 скачать торрент бесплатно

    Опубликовал: Админ | Дата: 27-02-2015, 11:10 | Просмотров: 343

    Sometimes you have to reach into someone else;s world to find out what;s missing in your own



    Создали в: 2011
    Создали в: Франция / Chaocorp, Gaumont, Quad Productions, TF1 Films Production
    Категория жанра: Драма, комедия, биография
    Перевод текста: Дублированный лицензия
    Субтитры: Вшитые отключаемые
    Язык субтитров: Русский, английский

    Главный режиссер: Оливье Накаш, Эрик Толедано
    Продюсеры: Лорен Зэйтун, Ян Зеноу, Арно Бертран
    Актеры: Франсуа Клюзе, Омар Си, Анн Ле Ни, Одри Флеро, Жозефин де Мо, Клотильд Молле, Гайя Крагеде Беллуджи, Сирил Менди, Салимата Камате, Абса Дьяту Тур

    Сюжет фильма:
    Пострадав в результате несчастного случая, богатый аристократ Филипп нанимает в помощники человека, который менее всего подходит для этой работы, — молодого жителя предместья Дрисса, только что освободившегося из тюрьмы. Несмотря на то, что Филипп прикован к инвалидному креслу, Дриссу удается привнести в размеренную жизнь аристократа дух приключений.

    Дата мировой премьеры: 23 сентября 2011
    Дата российской премьеры: 26 апреля 2012, Каскад
    Дата выхода DVD релиза: 28 мая 2012, Новый Диск
    Дата выхода Blu-Ray релиза: 25 июня 2012, Новый Диск
    Время просмотра: 01:47:33
    Качество фильма видео: DVD5

    Информация о видео: MPEG-2, 720x576@1024x576 (PAL 16:9), ~4849 Кбит/сек
    Информация о звуке 1: AC3 5.1, 448 Кбит/сек Русский - дублированный
    Информация о звуке 2: AC3 5.1, 448 Кбит/сек Французский - оригинал

    DVDInfo:
    Title: Локальный диск
    Size: 4.35 Gb ( 4 559 848 KBytes ) - DVD-5
    Enabled regions: 1, 2, 3, 4, 5, 6, 7, 8

    VTS_01 :
    Play Length:
    Video: PAL 4:3 (720x576) VBR
    Audio:
    Not specified (Dolby AC3, 2 ch)

    VTS_02 :
    Play Length: 00:00:08
    Video: PAL 16:9 (720x576) VBR, Auto PanScan
    Audio:
    Not specified (Dolby AC3, 2 ch)

    VTS_03 :
    Play Length:
    Video: PAL 16:9 (720x576) VBR, Auto PanScan
    Audio:
    Not specified (Dolby AC3, 2 ch)

    VTS_04 :
    Play Length:
    Video: PAL 16:9 (720x576) VBR, Auto PanScan
    Audio:
    Not specified (Dolby AC3, 2 ch)

    VTS_05 :
    Play Length:
    Video: PAL 16:9 (720x576) VBR, Auto PanScan
    Audio:
    Not specified (Dolby AC3, 2 ch)

    VTS_06 :
    Play Length:
    Video: PAL 16:9 (720x576) VBR, Auto PanScan
    Audio:
    Not specified (Dolby AC3, 2 ch)

    VTS_07 :
    Play Length:
    Video: PAL 16:9 (720x576) VBR, Auto PanScan
    Audio:
    Not specified (Dolby AC3, 2 ch)

    VTS_08 :
    Play Length:
    Video: PAL 16:9 (720x576) VBR, Auto PanScan
    Audio:
    Not specified (Dolby AC3, 2 ch)

    VTS_09 :
    Play Length:
    Video: PAL 16:9 (720x576) VBR, Auto PanScan
    Audio:
    Not specified (Dolby AC3, 2 ch)

    VTS_10 :
    Play Length:
    Video: PAL 16:9 (720x576) VBR, Auto PanScan
    Audio:
    Not specified (Dolby AC3, 2 ch)

    VTS_11 :
    Play Length:
    Video: PAL 16:9 (720x576) VBR, Auto PanScan
    Audio:
    Not specified (Dolby AC3, 2 ch)

    VTS_12 :
    Play Length:
    Video: PAL 16:9 (720x576) VBR, Auto PanScan
    Audio:
    Not specified (Dolby AC3, 2 ch)

    VTS_13 :
    Play Length: 00:00:01
    Video: PAL 16:9 (720x576) VBR, Auto PanScan
    Audio:
    Not specified (Dolby AC3, 2 ch)

    VTS_14 :
    Play Length: 01:47:33
    Video: PAL 16:9 (720x576) VBR, Auto PanScan
    Audio:
    Russian (Dolby AC3, 6 ch)
    Francais (Dolby AC3, 6 ch)
    Subtitles:
    Russian
    English

    VTS_15 :
    Play Length: 00:00:01
    Video: PAL 16:9 (720x576) VBR, Auto PanScan
    Audio:
    Not specified (Dolby AC3, 2 ch)

    Menu Video:
    NTSC 4:3 (720x480) VBR
    Auto PanScan, Auto Letterboxed
    Menu English Language Unit :
    Root Menu
    Chapter (PTT) Menu
    MediaInfo:
    Общее
    Полное имя : D:ВидеоIntouchables (2011) DVD5 BD - DVDVIDEO_TSVTS_14_3.VOB
    Формат : MPEG-PS
    Размер файла : 1024 Мбайт
    Продолжительность : 24 м.
    Режим общего битрейта : Переменный
    Общий поток : 5862 Кбит/сек

    Видео
    Идентификатор : 224 (0xE0)
    Формат : MPEG Video
    Версия формата : Version 2
    Профиль формата : Main@Main
    Параметр BVOP формата : Да
    Параметр матрицы формата : Выборочная
    Параметр GOP формата : Variable
    Продолжительность : 24 м.
    Вид битрейта : Переменный
    Битрейт : 4849 Кбит/сек
    Максимальный битрейт : 9800 Кбит/сек
    Ширина : 720 пикселей
    Высота : 576 пикселей
    Соотношение сторон : 16:9
    Частота кадров : 25,000 кадров/сек
    Стандарт вещания : PAL
    Цветовое пространство : YUV
    Субдискретизация насыщенности : 4:2:0
    Битовая глубина : 8 бит
    Тип развёртки : Прогрессивная
    Порядок развёртки : Верхнее поле первое
    Метод сжатия : С потерями
    Бит/(Пиксели*Кадры) : 0.468
    Временной код первого кадра : 01:50:17:22
    Оригинал временного кода : Group of pictures t_head
    Размер потока : 847 Мбайт (83%)

    Аудио #1
    Идентификатор : 189 (0xBD)-128 (0x80)
    Формат : AC-3
    Формат/Информация : Audio Coding 3
    Расширение режима : CM (complete main)
    Параметр Endianness формата : Big
    Режим смешивания : DVD-Video
    Продолжительность : 24 м.
    Вид битрейта : Постоянный
    Битрейт : 448 Кбит/сек
    Каналы : 6 каналов
    Расположение каналов : Front: L C R, Side: L R, LFE
    Частота : 48,0 КГц
    Битовая глубина : 16 бит
    Метод сжатия : С потерями
    Задержка видео : -744 мс.
    Размер потока : 78,3 Мбайт (8%)

    Аудио #2
    Идентификатор : 189 (0xBD)-129 (0x81)
    Формат : AC-3
    Формат/Информация : Audio Coding 3
    Расширение режима : CM (complete main)
    Параметр Endianness формата : Big
    Режим смешивания : DVD-Video
    Продолжительность : 24 м.
    Вид битрейта : Постоянный
    Битрейт : 448 Кбит/сек
    Каналы : 6 каналов
    Расположение каналов : Front: L C R, Side: L R, LFE
    Частота : 48,0 КГц
    Битовая глубина : 16 бит
    Метод сжатия : С потерями
    Задержка видео : -776 мс.
    Размер потока : 78,3 Мбайт (8%)

    Текст #1
    Идентификатор : 189 (0xBD)-32 (0x20)
    Формат : RLE
    Формат/Информация : Run-length encoding
    Режим смешивания : DVD-Video
    Задержка видео : 920 мс.

    Текст #2
    Идентификатор : 189 (0xBD)-33 (0x21)
    Формат : RLE
    Формат/Информация : Run-length encoding
    Режим смешивания : DVD-Video
    Задержка видео : 440 мс.

    Меню

    Доп. информация:
    Исходником данного DVD (видео и субтитры) послужил BDRemux. Звук и меню взяты из лицензионного DVD R5. Обработка видео проходила с помощью CCE SP2 в 2 прохода. Звук перетянут с помощью Adobe Audition.
    Бриф по изготовлению DVD:
    видео - CCE SP2, AviSynth, DGDecodeNV
    меню - Photoshop
    звук - Adobe Audition, Tranzcode, Sonic Foundry Soft Encode
    субтитры - Subtitle Workshop, MaestroSBT
    сборка и разборка материалов - tsMuxer, DVDReMakePro, MuxMan
    Скриншоты для ознакомления меню:

    Скриншоты для ознакомления:


    За DVD5 спасибо большое alut
    Залил: Саша 1992
    Размер скачиваемого торрента: 4.35 GB (4669284352 Bytes)

    Неприкасаемые / 1 1 / Intouchables (2011) DVD5 торрент скачать бесплатно
    загрузка...
    Рейтинг →
     (голосов: 1, оценка 4/5, голосовать можно 1 раз )

    Другие торренты по теме:

  • OST - Неприкасаемые / 1 1 / Intouchables (2012) MP3
  • Неприкасаемые / The Untouchables (1987) BDRip 1080р от Freeisland
  • Неприкасаемые / 1 1 / Intouchables (2011) DVD9 скачать через торрент бесплатно
  • 1+1 (Неприкасаемые) / Intouchables (2011) HDRip от MediaClub | КПК | Чистый звук
  • Неприкасаемые / The Untouchables
  • 1+1 / Неприкасаемые / Intouchables (2011) BDRip 720p | KinoGadget | iPad
  • Неприкасаемые / The Untouchables (1987) BDRip-HEVC 1080p | P, A


    • Комментарии (0):

      Информация

      Информация

        Посетители, находящиеся в группе Гости, не могут оставлять комментарии в данной новости.

        ↓ Меню



        ↓ Опрос

        А Вы добавили сайт в закладки?
        Да
        Не


        Top 10 за месяц (Фильмы)