.
Авторизация | Регистрация
Хочешь лучшие торренты? Добавь свой email!
Добавить
» » Северная стена / The North Face / Nordwand (2008) BDRip-AVC от ExKinoRay | D, L1 скачать через торрент бесплатно




    Северная стена / The North Face / Nordwand (2008) BDRip-AVC от ExKinoRay | D, L1 скачать через торрент бесплатно

    Опубликовал: Админ | Дата: 27-02-2015, 11:10 | Просмотров: 256



    Детально о кино

    Русское название: Северная стена
    Русское название в мировом прокате: Nordwand
    Создали в: 2008
    Категория жанра: Драма, альпинизм, исторический
    Снималось в: Dor Film-West Produktionsgesellschaft GmbH, Lunaris Film, MedienKontor Movie GmbH
    Главный режиссер: Филипп Штёльцль
    Актеры: Бенно Фюрманн, Йоханна Вокалек, Флориан Лукас, Георг Фридрих, Саймон Шварц, Ульрих Тукур, Эрвин Штайнхауэр, Бранко Самаровски, Петра Морзе, Ганспетер Мюллер


    Сюжет фильма: 1936 год. Северная стена Айгера - последняя нерешенная проблема Альп, за решение которой сам Гитлер лично обещает вручить золотые медали Берлинской олимпиады... Есть три знаменитые классические стены северной ориентации - Гранд Жорас, Матерхорн, Айгер. Первым - в 1931 - пал Матерхорн. В 1935 была пройдена стена Гранд Жораса. Но именно Северную стену Айгера прозвали Стеной смерти. Именно на неё власти кантона в 1938-м запретили совершать восхождения, а спасатели вопреки всем канонам и уставам заявили в запале, что больше никого не будут вытаскивать с этой стены. Что ж, всему есть предел. И в конце 30-х казалось, что стену не взять никогда. Основанием для подобных размышлений служила хроника предыдущего десятилетия. С 1928 по 1936 на стену - как под поезд - бросаются группы смельчаков. Безуспешно. Июль 1936-го. Два баварца - Андреас Хинтерштойсер и Тони Курц, и два австрийца - Вилли Ангерер и Эдди Райнер объединяют усилия в штурме стены... Этот художественной фильм - редчайшее сочетание захватывающего зрелища, настоящей драмы, и при этом исторической и технической достоверности.





    Файл

    Качество фильма: BDRip (AVC)
    Информация о видео: MPEG-4 AVC, 3500 Кбит/с, 1024x436, 24 кадр/с
    Информация о звуке: Русский (АС3, 2 ch, 192 Кбит/с), (АС3, 6 ch, 448 Кбит/с), немецкий (АС3, 6 ch, 448 Кбит/с)
    Размер скачиваемого торрента: 4.04 ГБ
    Время просмотра: 02:06:05
    Перевод текста: Дублированый, любительский одноголосый
    Субтитры: Русские, немецкие, английские


    Аудио1: Русский (AC3, 2 ch, 192 Кбит/с) - Дублированный - студия SaTI
    Аудио2: Русский (AC3, 6 ch, 448 Кбит/с) - Любительский одноголосый закадровый - AlexSer
    Аудио3: Немецкий (AC3, 6 ch, 448 Кбит/с)


    Сохранены оригинальные чаптеры как на Blu-Ray.


    Инфо-файл

    Общее
    Уникальный идентификатор : 175436716068050209635734040010404153138 (0x83FBE1EA57D55D7F8B0C2E651EBC4732)
    Полное имя : D:ЗагрузкиNordwand.2008.x264.BDRip.(AVC).ExKinoRay.mkv
    Формат : Matroska
    Версия формата : Version 2
    Размер файла : 4,04 Гбайт
    Продолжительность : 2 ч. 6 м.
    Общий поток : 4590 Кбит/сек
    Название фильма : Северная стена.2008.Rip by: ollan
    Дата кодирования : UTC 2014-02-18 10:35:47
    Программа кодирования : mkvmerge v5.6.0 (;Kenya Kane;) built on May 27 2012 16:44:04
    Библиотека кодирования : libebml v1.2.3 libmatroska v1.3.0

    Видео
    Идентификатор : 1
    Формат : AVC
    Формат/Информация : Advanced Video Codec
    Профиль формата : High@L4.1
    Параметр CABAC формата : Да
    Параметр ReFrames формата : 8 кадров
    Идентификатор кодека : V_MPEG4/ISO/AVC
    Продолжительность : 2 ч. 6 м.
    Битрейт : 3500 Кбит/сек
    Ширина : 1024 пикселя
    Высота : 436 пикселей
    Соотношение сторон : 2,35:1
    Режим частоты кадров : Постоянный
    Частота кадров : 24,000 кадра/сек
    Цветовое пространство : YUV
    Субдискретизация насыщенности : 4:2:0
    Битовая глубина : 8 бит
    Тип развёртки : Прогрессивная
    Бит/(Пиксели*Кадры) : 0.327
    Размер потока : 3,00 Гбайт (74%)
    Библиотека кодирования : x264 core 125 r2200 999b753
    Настройки программы : cabac=1 / ref=8 / deblock=1:-3:-3 / analyse=0x3:0x133 / me=umh / subme=11 / psy=1 / psy_rd=1.00:0.10 / mixed_ref=1 / me_range=32 / chroma_me=1 / trellis=2 / 8x8dct=1 / cqm=0 / deadzone=21,11 / fast_pskip=0 / chroma_qp_offset=-3 / threads=12 / lookahead_threads=2 / sliced_threads=0 / nr=0 / decimate=0 / interlaced=0 / bluray_compat=0 / constrained_intra=0 / bframes=9 / b_pyramid=2 / b_adapt=2 / b_bias=0 / direct=3 / weightb=1 / open_gop=0 / weightp=2 / keyint=240 / keyint_min=23 / scenecut=40 / intra_refresh=0 / rc_lookahead=40 / rc=2pass / mbtree=1 / bitrate=3500 / ratetol=1.0 / qcomp=0.60 / qpmin=0 / qpmax=69 / qpstep=4 / cplxblur=20.0 / qblur=0.5 / ip_ratio=1.40 / aq=1:1.00
    Язык : German
    Default : Да
    Forced : Нет

    Аудио #1
    Идентификатор : 2
    Формат : AC-3
    Формат/Информация : Audio Coding 3
    Расширение режима : CM (complete main)
    Параметр Endianness формата : Big
    Идентификатор кодека : A_AC3
    Продолжительность : 2 ч. 6 м.
    Вид битрейта : Постоянный
    Битрейт : 192 Кбит/сек
    Каналы : 2 канала
    Расположение каналов : Front: L R
    Частота : 48,0 КГц
    Битовая глубина : 16 бит
    Метод сжатия : С потерями
    Размер потока : 173 Мбайт (4%)
    Заголовок : Дублированный
    Язык : Russian
    Default : Да
    Forced : Нет

    Аудио #2
    Идентификатор : 3
    Формат : AC-3
    Формат/Информация : Audio Coding 3
    Расширение режима : CM (complete main)
    Параметр Endianness формата : Big
    Идентификатор кодека : A_AC3
    Продолжительность : 2 ч. 6 м.
    Вид битрейта : Постоянный
    Битрейт : 448 Кбит/сек
    Каналы : 6 каналов
    Расположение каналов : Front: L C R, Side: L R, LFE
    Частота : 48,0 КГц
    Битовая глубина : 16 бит
    Метод сжатия : С потерями
    Размер потока : 404 Мбайт (10%)
    Заголовок : Любительский одноголосый
    Язык : Russian
    Default : Нет
    Forced : Нет

    Аудио #3
    Идентификатор : 4
    Формат : AC-3
    Формат/Информация : Audio Coding 3
    Расширение режима : CM (complete main)
    Параметр Endianness формата : Big
    Идентификатор кодека : A_AC3
    Продолжительность : 2 ч. 6 м.
    Вид битрейта : Постоянный
    Битрейт : 448 Кбит/сек
    Каналы : 6 каналов
    Расположение каналов : Front: L C R, Side: L R, LFE
    Частота : 48,0 КГц
    Битовая глубина : 16 бит
    Метод сжатия : С потерями
    Размер потока : 404 Мбайт (10%)
    Язык : German
    Default : Нет
    Forced : Нет

    Текст #1
    Идентификатор : 5
    Формат : UTF-8
    Идентификатор кодека : S_TEXT/UTF8
    Идентификатор кодека/Информация : UTF-8 Plain Text
    Язык : Russian
    Default : Нет
    Forced : Нет

    Текст #2
    Идентификатор : 6
    Формат : UTF-8
    Идентификатор кодека : S_TEXT/UTF8
    Идентификатор кодека/Информация : UTF-8 Plain Text
    Язык : German
    Default : Нет
    Forced : Нет

    Текст #3
    Идентификатор : 7
    Формат : UTF-8
    Идентификатор кодека : S_TEXT/UTF8
    Идентификатор кодека/Информация : UTF-8 Plain Text
    Язык : English
    Default : Нет
    Forced : Нет

    Меню
    00:00:00.000 : en:Chapter 01
    00:08:34.083 : en:Chapter 02
    00:18:56.458 : en:Chapter 03
    00:27:51.958 : en:Chapter 04
    00:38:42.166 : en:Chapter 05
    00:47:57.416 : en:Chapter 06
    00:57:41.416 : en:Chapter 07
    01:13:15.875 : en:Chapter 08
    01:24:42.500 : en:Chapter 09
    01:43:52.958 : en:Chapter 10
    01:56:26.583 : en:Chapter 11
    01:59:52.333 : en:Chapter 12



    Скриншоты для ознакомления







    Релиз подготовил: Рип:
    Размер скачиваемого торрента: 4.04 GB (4340984187 Bytes)

    Северная стена / The North Face / Nordwand (2008) BDRip-AVC от ExKinoRay | D, L1 скачать через торрент бесплатно
    загрузка...
    Рейтинг →
     (голосов: 1, оценка 5/5, голосовать можно 1 раз )

    Другие торренты по теме:

  • Северная стена / The North Face / Nordwand (2008) BDRip 1080p | L1
  • Северная стена / The North Face / Nordwand (2008) BDRip 720p | SaTI
  • Северная стена / The North Face / Nordwand (2008) HDRip | SaTI
  • Северная стена / The North Face / Nordwand (2008) BDRip 1080p | SaTI скачать через торрент бесплатно
  • Северная стена / The North Face / Nordwand (2008) HDRip от Scarabey | D скачать через торрент бесплатно
  • Северная стена / The North Face / Nordwand (2008) BDRemux 1080p от ExKinoRay | D, L1 скачать через торрент бесплатно
  • Северная стена / Nordwand / The North Face (2008) BDRip-AVC от Leo.pard | D скачать через торрент бесплатно
  • Северная стена / The North Face / Nordwand (2008) BDRip 720p от ExKinoRay | D, L1, А


    • Комментарии (0):

      Информация

      Информация

        Посетители, находящиеся в группе Гости, не могут оставлять комментарии в данной новости.

        ↓ Меню



        ↓ Опрос

        А Вы добавили сайт в закладки?
        Да
        Не


        Top 10 за месяц (Фильмы)