.
Авторизация | Регистрация
Хочешь лучшие торренты? Добавь свой email!
Добавить
» » Сеть / The Net (1995) BDRip-AVC | iPhone | D скачать торрент бесплатно




    Сеть / The Net (1995) BDRip-AVC | iPhone | D скачать торрент бесплатно

    Опубликовал: Админ | Дата: 27-02-2015, 11:10 | Просмотров: 270



    Сеть / The Net (1995) BDRip-AVC | iPhone | D

    Русское название: Сеть
    Русское название в мировом прокате: The Net
    Создали в: 1995
    Категория жанра: боевик, триллер, драма, криминал, детектив
    Главный режиссер: Ирвин Уинклер
    Актеры: Сандра Буллок, Джереми Нортэм, Дэннис Миллер, Дайан Бэйкер, Венди Газелль, Кен Ховард, Рэй МакКиннон, Дэниэл Шорр, Л. Скотт Колдуэлл, Роберт Госсетт

    Сюжет фильма:
    Как и все мы, Анжела Беннет живет в век информации. Все аспекты ее существования переведены в цифры и занесены в различные компьютерные базы данных: личный идентификационный номер, номер банковского счета, номер страхового свидетельства, номер водительского удостоверения, сведения об отсутствии судимости. Работа Анжелы тоже связана с компьютерами - она программист. Существование Анжелы Беннет полностью компьютеризованно. Она не придает этому значения, но однажды ее личность стирают! Гуляя по компьютерной сети, Анжела случайно перебегает дорогу преторианцам. Преторианцами называют себя члены организованной группы хакеров, на счету которых взломы правительственных систем безопасности, биржевые крахи, авиакатастрофы и убийства, совершенные с использованием только одного оружия - всемирной сети интернет. Анжела становится следующей жертвой в списке хакеров.Они стирают ее личность и вписывают в биографию Анжелы новое имя и преступное прошлое. Согласно сфабрикованным данным, Анжела - опасная преступница, которая находится в розыске. Она должна найти в себе силы побороть злых компьютерных гениев


    Снималось в: США
    Киностудия: Columbia Pictures Corporation, Winkler Films

    Время просмотра: 01:54:18
    Перевод текста: Русский дублированный

    Файл
    Кодек для видео: H.264
    Качество фильма: BDRip-AVC 480p iPhone
    Информация о видео: 640x460@852x460 (1.85:1) at 23.976 fps, AVC at 2055 kbps
    Информация о звуке:
    1: 48 kHz, AAC 2.0, 160 kbps - Русский дублированный
    2: 48 kHz, AAC 2.0, 160 kbps - Английский
    Субтитры: Английские

    Media Info

    General
    Complete name : C:CREATE480outThe Net.1995 (SD).m4v
    Format : MPEG-4
    Codec ID : M4V
    File size : 1.90 GiB
    Duration : 1h 54mn
    Overall bit rate mode : Variable
    Overall bit rate : 2 377 Kbps
    Movie name : Сеть
    Performer : Ирвин Уинклер
    Genre : Thriller
    Recorded date : UTC 1995-07-28 08:00:00
    Encoded date : UTC 2014-02-17 07:04:13
    Tagged date : UTC 2014-02-17 07:20:09
    Copyright : Columbia Pictures Corporation, Winkler Films
    Cover : Yes
    Comment : Escape is impossible when you;re caught in the net
    sonm : The Net
    desc : Как и все мы, Анжела Беннет живет в век информации. Все аспекты ее существования переведены в цифры и занесены в различные компьютерные базы данных: личный идентификационный номер, номер банковского счета, номер страхового свидетельства, номер водите
    ldes : Как и все мы, Анжела Беннет живет в век информации. Все аспекты ее существования переведены в цифры и занесены в различные компьютерные базы данных: личный идентификационный номер, номер банковского счета, номер страхового свидетельства, номер водительского удостоверения, сведения об отсутствии судимости. Работа Анжелы тоже связана с компьютерами - она программист. Существование Анжелы Беннет полностью компьютеризованно. Она не придает этому значения, но однажды ее личность стирают! Гуляя по компьютерной сети, Анжела случайно перебегает дорогу преторианцам. Преторианцами называют себя члены организованной группы хакеров, на счету которых взломы правительственных систем безопасности, биржевые крахи, авиакатастрофы и убийства, совершенные с использованием только одного оружия - всемирной сети интернет. Анжела становится следующей жертвой в списке хакеров. Они стирают ее личность и вписывают в биографию Анжелы новое имя и преступное прошлое. Согласно сфабрикованным данным, Анжела - опасная преступница, которая находится в розыске. Она должна найти в себе силы побороть злых компьютерных гениев.
    stik : 9
    rtng : 0
    cnID : 263455177
    xid : Apple:vendor_id:1995-6132
    iTunEXTC : mpaa|PG-13|300|

    Video #1
    ID : 1
    Format : AVC
    Format/Info : Advanced Video Codec
    Format profile : Baseline@L3.0
    Format settings, CABAC : No
    Format settings, ReFrames : 2 frames
    Codec ID : avc1
    Codec ID/Info : Advanced Video Coding
    Duration : 1h 54mn
    Bit rate : 2 055 Kbps
    Maximum bit rate : 7 240 Kbps
    Width : 640 pixels
    Height : 460 pixels
    Display aspect ratio : 1.85:1
    Frame rate mode : Constant
    Frame rate : 23.976 fps
    Color space : YUV
    Chroma subsampling : 4:2:0
    Bit depth : 8 bits
    Scan type : Progressive
    Bits/(Pixel*Frame) : 0.291
    Stream size : 1.64 GiB (86%)
    Title : The Net _1995_
    Writing library : x264 core 140 r2377 40 929f149 tMod 8-bit@4:2:0 X86_64
    Encoding settings : cabac=0 / ref=2 / deblock=1:-2:-2 / analyse=0x1:0x131 / me=umh / subme=7 / psy=1 / fade_compensate=1.00 / psy_rd=1.00:0.10 / mixed_ref=1 / me_range=48 / chroma_me=1 / trellis=2 / 8x8dct=0 / cqm=0 / deadzone=21,11 / fast_pskip=0 / chroma_qp_offset=-3 / threads=12 / lookahead_threads=2 / sliced_threads=0 / nr=0 / decimate=0 / interlaced=0 / bluray_compat=0 / constrained_intra=0 / fgo=5 / bframes=0 / weightp=0 / keyint=250 / keyint_min=23 / scenecut=40 / intra_refresh=0 / rc_lookahead=120 / rc=crf / mbtree=1 / crf=20.0000 / qcomp=0.65 / qpmin=0:0:0 / qpmax=69:69:69 / qpstep=4 / vbv_maxrate=5000 / vbv_bufsize=5000 / crf_max=0.0 / nal_hrd=none / filler=0 / ip_ratio=1.35 / aq=4:0.90 / aq-sensitivity=10.00 / aq-factor=1.00:1.00:1.00 / aq2=0 / aq3=0
    Language : English
    Encoded date : UTC 2014-02-17 07:04:13
    Tagged date : UTC 2014-02-17 07:05:21
    Matrix coefficients : BT.709

    Video #2
    ID : 6
    Format : JPEG
    Codec ID : jpeg
    Duration : 1h 54mn
    Bit rate mode : Variable
    Bit rate : 680 bps
    Width : 640 pixels
    Height : 345 pixels
    Display aspect ratio : 1.85:1
    Frame rate mode : Variable
    Frame rate : 0.002 fps
    Minimum frame rate : 0.002 fps
    Maximum frame rate : 0.004 fps
    Color space : YUV
    Chroma subsampling : 4:2:0
    Bit depth : 8 bits
    Compression mode : Lossy
    Bits/(Pixel*Frame) : 1.540
    Stream size : 664 KiB (0%)
    Language : English
    Encoded date : UTC 2014-02-17 07:19:24
    Tagged date : UTC 2014-02-17 07:19:25

    Audio #1
    ID : 2
    Format : AAC
    Format/Info : Advanced Audio Codec
    Format profile : LC
    Codec ID : 40
    Duration : 1h 54mn
    Bit rate mode : Variable
    Bit rate : 160 Kbps
    Maximum bit rate : 220 Kbps
    Channel(s) : 2 channels
    Channel positions : Front: L R
    Sampling rate : 48.0 KHz
    Compression mode : Lossy
    Stream size : 131 MiB (7%)
    Title : DUB
    Language : Russian
    Encoded date : UTC 2014-02-17 06:55:13
    Tagged date : UTC 2014-02-17 07:05:21

    Audio #2
    ID : 3
    Format : AAC
    Format/Info : Advanced Audio Codec
    Format profile : LC
    Codec ID : 40
    Duration : 1h 54mn
    Bit rate mode : Variable
    Bit rate : 155 Kbps
    Maximum bit rate : 223 Kbps
    Channel(s) : 2 channels
    Channel positions : Front: L R
    Sampling rate : 48.0 KHz
    Compression mode : Lossy
    Stream size : 127 MiB (7%)
    Title : Original
    Language : English
    Encoded date : UTC 2014-02-17 06:59:43
    Tagged date : UTC 2014-02-17 07:05:21

    Text
    ID : 4
    Format : Timed Text
    Muxing mode : sbtl
    Codec ID : tx3g
    Duration : 1h 50mn
    Bit rate mode : Variable
    Bit rate : 69 bps
    Stream size : 56.1 KiB (0%)
    Title : Subtitle Russian
    Language : Russian
    Encoded date : UTC 2014-02-17 07:05:21
    Tagged date : UTC 2014-02-17 07:05:21

    Menu
    ID : 5
    Codec ID : text
    Duration : 1h 54mn
    Language : English
    Encoded date : UTC 2014-02-17 07:08:09
    Tagged date : UTC 2014-02-17 07:08:09
    Bit rate mode : CBR
    iTunes Meta Tags

    Sort Name: The Net
    XID: Apple:vendor_id:1995-6132
    contentID: 263455177
    Copyright: Columbia Pictures Corporation, Winkler Films
    Screenwriters: Джон Д. Бранкато, Майкл Феррис
    Producers: Роб Кауэн, Ирвин Уинклер
    Director: Irwin Winkler
    Cast: Сандра Буллок, Джереми Нортэм, Дэннис Миллер, Дайан Бэйкер, Венди Газелль, Кен Ховард, Рэй МакКиннон, Дэниэл Шорр, Л. Скотт Колдуэлл, Роберт Госсетт
    Studio: Columbia Pictures Corporation, Winkler Films
    Rating: 4
    Long Deion: Как и все мы, Анжела Беннет живет в век информации. Все аспекты ее существования переведены в цифры и занесены в различные компьютерные базы данных: личный идентификационный номер, номер банковского счета, номер страхового свидетельства, номер водительского удостоверения, сведения об отсутствии судимости. Работа Анжелы тоже связана с компьютерами - она программист. Существование Анжелы Беннет полностью компьютеризованно. Она не придает этому значения, но однажды ее личность стирают! Гуляя по компьютерной сети, Анжела случайно перебегает дорогу преторианцам. Преторианцами называют себя члены организованной группы хакеров, на счету которых взломы правительственных систем безопасности, биржевые крахи, авиакатастрофы и убийства, совершенные с использованием только одного оружия - всемирной сети интернет. Анжела становится следующей жертвой в списке хакеров. Они стирают ее личность и вписывают в биографию Анжелы новое имя и преступное прошлое. Согласно сфабрикованным данным, Анжела - опасная преступница, которая находится в розыске. Она должна найти в себе силы побороть злых компьютерных гениев.
    Deion: Как и все мы, Анжела Беннет живет в век информации. Все аспекты ее существования переведены в цифры и занесены в различные компьютерные базы данных: личный идентификационный номер, номер банковского счета, номер страхового свидетельства, номер водите
    Release Date: 1995-07-28T08:00:00Z
    Genre: Thriller
    Comments: Escape is impossible when you;re caught in the net
    Artist: Ирвин Уинклер
    Name: Сеть
    x264 Log

    x264 info: frame I:3097 Avg QP:18.69 size: 29441
    x264 info: frame P:161351 Avg QP:20.92 size: 10355
    x264 info: mb I I16..4: 42.9% 0.0% 57.1%
    x264 info: mb P I16..4: 0.7% 0.0% 0.5% P16..4: 47.1% 19.7% 15.5% 1.2% 1.0% skip:14.3%
    x264 info: coded y,uvDC,uvAC intra: 61.6% 60.7% 32.7% inter: 44.2% 39.0% 10.8%
    x264 info: i16 v,h,dc,p: 52% 12% 13% 23%
    x264 info: i4 v,h,dc,ddl,ddr,vr,hd,vl,hu: 26% 14% 20% 7% 8% 9% 6% 7% 4%
    x264 info: i8c dc,h,v,p: 60% 14% 20% 6%
    x264 info: ref P L0: 76.0% 24.0%
    x264 info: kb/s:2055.06
    Скриншоты для ознакомления




    Залил: gekka
    Размер скачиваемого торрента: 1.90 GB (2037711210 Bytes)

    Сеть / The Net (1995) BDRip-AVC | iPhone | D торрент скачать бесплатно
    загрузка...
    Рейтинг →
     (голосов: 1, оценка 4/5, голосовать можно 1 раз )

    Другие торренты по теме:

  • Социальная сеть / The Social Network (2010) HDRip от YouTracker
  • Глушакoв С. В., Хачиров Т. С. - Настраиваем сеть своими руками (2008) PDF
  • Социальная сеть / The Social Network (2010) BDRip 1080p
  • Социальная сеть / The Social Network (2010) HDRip от Scarabey | D
  • Пойманные в сеть / Caught in the Web / Sou Suo (2012) DVDRip | L1
  • Социальная сеть / The Social Network (2010) BDRip 720p скачать через торрент бесплатно
  • Гилберт Майкл - Этрусская сеть (2013) MP3 скачать через торрент бесплатно
  • Сеть / The Net (1995) BDRip 1080p


    • Комментарии (0):

      Информация

      Информация

        Посетители, находящиеся в группе Гости, не могут оставлять комментарии в данной новости.

        ↓ Меню



        ↓ Опрос

        А Вы добавили сайт в закладки?
        Да
        Не


        Top 10 за месяц (Фильмы)