.
Авторизация | Регистрация
Хочешь лучшие торренты? Добавь свой email!
Добавить
» » Крупная рыба / Big Fish (2003) HDRip-AVC | iPhone | D скачать торрент бесплатно




    Крупная рыба / Big Fish (2003) HDRip-AVC | iPhone | D скачать торрент бесплатно

    Опубликовал: Админ | Дата: 27-02-2015, 11:10 | Просмотров: 304



    Крупная рыба / Big Fish (2003) HDRip-AVC | iPhone | D

    Русское название: Крупная рыба
    Русское название в мировом прокате: Big Fish
    Создали в: 2003
    Категория жанра: фэнтези, драма, приключения
    Главный режиссер: Тим Бёртон
    Актеры: Юэн МакГрегор, Альберт Финни, Билли Крудап, Джессика Лэнг, Хелена Бонем Картер, Элисон Ломан, Роберт Гийом, Марион Котийяр, Стив Бушеми, Дэнни ДеВито, Майли Сайрус

    Сюжет фильма:
    Однажды Эд Блум из Алабамы решил поймать гигантскую рыбу, по слухам, обитавшую в реке. А поскольку рыба была уникальная, то и наживка для нее была не простой - золотое кольцо... Так начиналась любимые байки вечного выдумщика и фантазера Эда, которые он рассказывал сыну Уиллу. Но вот Уилл вырос, перестал верить в сказки и понял: несколько неправдоподобных историй - единственное, что он вообще знает о загадочной молодости отца! Блум-старший уже стар и болен, пришло время оставить россказни-прибаутки и поговорить с ним на чистоту, но что если... Эд всегда говорил правду?!


    Снималось в: США
    Киностудия: Columbia Pictures Corporation

    Время просмотра: 02:05:09
    Перевод текста: Русский дублированный

    Файл
    Кодек для видео: H.264
    Качество фильма: HDRip-AVC 480p iPhone
    Информация о видео: 640x460@852x460 (1.85:1) at 23.976 fps, AVC at 1850 kbps
    Информация о звуке:
    1: 48 kHz, AAC 2.0, 180 kbps - Русский дублированный
    2: 48 kHz, AAC 2.0, 180 kbps - Английский
    Субтитры: Английские

    Media Info

    General
    Complete name : C:CREATE480outBig Fish.2003 (SD).m4v
    Format : MPEG-4
    Codec ID : M4V
    File size : 1.95 GiB
    Duration : 2h 5mn
    Overall bit rate mode : Variable
    Overall bit rate : 2 226 Kbps
    Movie name : Крупная рыба
    Performer : Тим Бёртон
    Genre : Adventure
    Recorded date : 2003-12-10
    Encoded date : UTC 2014-02-17 08:08:09
    Tagged date : UTC 2014-02-17 08:25:37
    Copyright : Columbia Pictures Corporation, Jinks/Cohen Company, Zanuck Company
    Cover : Yes
    Comment : Приключения длиною в жизнь
    sonm : Big Fish
    desc : В основу этой приключенческой ленты положен роман Дэниела Уоллеса Большая рыба: роман мифических пропорций. Умирает отец, о жизни которого сын хочет узнать как можно больше, собирая истории о нем.Сын пытается воссоздать ускользающую жизнь отца...
    ldes : В основу этой приключенческой ленты положен роман Дэниела Уоллеса Большая рыба: роман мифических пропорций. Умирает отец, о жизни которого сын хочет узнать как можно больше, собирая истории о нем.Сын пытается воссоздать ускользающую жизнь отца в серии легенд и мифов, которые тот придумывает на основе разрозненных фактов. Взлеты и падения в жизни человека в итоге предстают в неожиданном ракурсе.
    stik : 9
    rtng : 0
    cnID : 280660162
    xid : Apple:vendor_id:2003-9617
    iTunEXTC : mpaa|PG-13|300|

    Video
    ID : 1
    Format : AVC
    Format/Info : Advanced Video Codec
    Format profile : Baseline@L3.0
    Format settings, CABAC : No
    Format settings, ReFrames : 2 frames
    Codec ID : avc1
    Codec ID/Info : Advanced Video Coding
    Duration : 2h 5mn
    Bit rate : 1 852 Kbps
    Maximum bit rate : 9 621 Kbps
    Width : 640 pixels
    Height : 460 pixels
    Display aspect ratio : 1.85:1
    Frame rate mode : Constant
    Frame rate : 23.976 fps
    Color space : YUV
    Chroma subsampling : 4:2:0
    Bit depth : 8 bits
    Scan type : Progressive
    Bits/(Pixel*Frame) : 0.262
    Stream size : 1.62 GiB (83%)
    Title : Big Fish _2003_
    Writing library : x264 core 140 r2377 40 929f149 tMod 8-bit@4:2:0 X86_64
    Encoding settings : cabac=0 / ref=2 / deblock=1:-2:-2 / analyse=0x1:0x131 / me=umh / subme=7 / psy=1 / fade_compensate=1.00 / psy_rd=1.00:0.10 / mixed_ref=1 / me_range=48 / chroma_me=1 / trellis=2 / 8x8dct=0 / cqm=0 / deadzone=21,11 / fast_pskip=0 / chroma_qp_offset=-3 / threads=12 / lookahead_threads=2 / sliced_threads=0 / nr=0 / decimate=0 / interlaced=0 / bluray_compat=0 / constrained_intra=0 / fgo=5 / bframes=0 / weightp=0 / keyint=250 / keyint_min=23 / scenecut=40 / intra_refresh=0 / rc_lookahead=120 / rc=crf / mbtree=1 / crf=20.0000 / qcomp=0.65 / qpmin=0:0:0 / qpmax=69:69:69 / qpstep=4 / vbv_maxrate=5000 / vbv_bufsize=5000 / crf_max=0.0 / nal_hrd=none / filler=0 / ip_ratio=1.35 / aq=4:0.90 / aq-sensitivity=10.00 / aq-factor=1.00:1.00:1.00 / aq2=0 / aq3=0
    Language : English
    Encoded date : UTC 2014-02-17 08:08:09
    Tagged date : UTC 2014-02-17 08:09:07
    Matrix coefficients : BT.709

    Audio #1
    ID : 2
    Format : AAC
    Format/Info : Advanced Audio Codec
    Format profile : LC
    Codec ID : 40
    Duration : 2h 5mn
    Bit rate mode : Variable
    Bit rate : 186 Kbps
    Maximum bit rate : 229 Kbps
    Channel(s) : 2 channels
    Channel positions : Front: L R
    Sampling rate : 48.0 KHz
    Compression mode : Lossy
    Stream size : 167 MiB (8%)
    Title : DUB _Blu_ray CEE_
    Language : Russian
    Encoded date : UTC 2014-02-17 07:59:19
    Tagged date : UTC 2014-02-17 08:09:07

    Audio #2
    ID : 3
    Format : AAC
    Format/Info : Advanced Audio Codec
    Format profile : LC
    Codec ID : 40
    Duration : 2h 5mn
    Bit rate mode : Variable
    Bit rate : 183 Kbps
    Maximum bit rate : 228 Kbps
    Channel(s) : 2 channels
    Channel positions : Front: L R
    Sampling rate : 48.0 KHz
    Compression mode : Lossy
    Stream size : 164 MiB (8%)
    Title : Original
    Language : English
    Encoded date : UTC 2014-02-17 08:03:36
    Tagged date : UTC 2014-02-17 08:09:07

    Text #1
    ID : 4
    Format : Timed Text
    Muxing mode : sbtl
    Codec ID : tx3g
    Duration : 2h 0mn
    Bit rate mode : Variable
    Bit rate : 81 bps
    Stream size : 71.7 KiB (0%)
    Title : Subtitle Russian
    Language : Russian
    Encoded date : UTC 2014-02-17 08:09:07
    Tagged date : UTC 2014-02-17 08:09:07

    Text #2
    ID : 5
    Format : Timed Text
    Muxing mode : sbtl
    Codec ID : tx3g
    Duration : 2h 0mn
    Bit rate mode : Variable
    Bit rate : 56 bps
    Stream size : 48.9 KiB (0%)
    Title : Subtitle English
    Language : English
    Encoded date : UTC 2014-02-17 08:09:07
    Tagged date : UTC 2014-02-17 08:09:07
    iTunes Meta Tags

    Sort Name: Big Fish
    XID: Apple:vendor_id:2003-9617
    contentID: 280660162
    Copyright: Columbia Pictures Corporation, Jinks/Cohen Company, Zanuck Company
    Screenwriters: Джон Огаст, Дэниэл Уоллес
    Producers: Брюс Коэн, Дэн Джинкс, Ричард Д. Занук
    Director: Tim Burton
    Cast: Юэн МакГрегор, Альберт Финни, Билли Крудап, Джессика Лэнг, Хелена Бонем Картер, Элисон Ломан, Роберт Гийом, Марион Котийяр, Стив Бушеми, Дэнни ДеВито, Майли Сайрус
    Studio: Columbia Pictures Corporation, Jinks/Cohen Company, Zanuck Company
    Rating: 4
    Long Deion: В основу этой приключенческой ленты положен роман Дэниела Уоллеса Большая рыба: роман мифических пропорций. Умирает отец, о жизни которого сын хочет узнать как можно больше, собирая истории о нем.Сын пытается воссоздать ускользающую жизнь отца в серии легенд и мифов, которые тот придумывает на основе разрозненных фактов. Взлеты и падения в жизни человека в итоге предстают в неожиданном ракурсе.
    Deion: В основу этой приключенческой ленты положен роман Дэниела Уоллеса Большая рыба: роман мифических пропорций. Умирает отец, о жизни которого сын хочет узнать как можно больше, собирая истории о нем.Сын пытается воссоздать ускользающую жизнь отца...
    Release Date: 2003-12-10
    Genre: Adventure
    Comments: Приключения длиною в жизнь
    Artist: Тим Бёртон
    Name: Крупная рыба
    x264 Log

    x264 info: frame I:2811 Avg QP:18.41 size: 33039
    x264 info: frame P:177229 Avg QP:20.77 size: 9284
    x264 info: mb I I16..4: 37.7% 0.0% 62.3%
    x264 info: mb P I16..4: 0.5% 0.0% 0.5% P16..4: 50.1% 16.1% 12.6% 1.2% 0.8% skip:18.2%
    x264 info: coded y,uvDC,uvAC intra: 59.4% 67.8% 45.5% inter: 38.2% 42.4% 17.3%
    x264 info: i16 v,h,dc,p: 45% 14% 11% 30%
    x264 info: i4 v,h,dc,ddl,ddr,vr,hd,vl,hu: 26% 15% 16% 7% 8% 9% 7% 8% 5%
    x264 info: i8c dc,h,v,p: 58% 14% 20% 8%
    x264 info: ref P L0: 76.6% 23.4%
    x264 info: kb/s:1851.91
    Скриншоты для ознакомления




    Залил: gekka
    Размер скачиваемого торрента: 1.95 GB (2089815976 Bytes)

    Крупная рыба / Big Fish (2003) HDRip-AVC | iPhone | D торрент скачать бесплатно
    загрузка...
    Рейтинг →
     (голосов: 1, оценка 5/5, голосовать можно 1 раз )

    Другие торренты по теме:

  • Крупная Рыба / Big Fish (2003) BDRip-AVC | iPad
  • Крупная рыба / Big Fish (2003) BDRip-AVC
  • Крупная Рыба / Big Fish (2003) BDRip 1080p скачать бесплатно через торрент
  • Крупная рыба / Big Fish (2003) BDRip 720p by msltel | D, P, P2, A, L1 скачать через торрент бесплатно


    • Комментарии (0):

      Информация

      Информация

        Посетители, находящиеся в группе Гости, не могут оставлять комментарии в данной новости.

        ↓ Меню



        ↓ Опрос

        А Вы добавили сайт в закладки?
        Да
        Не


        Top 10 за месяц (Фильмы)