.
Авторизация | Регистрация
Хочешь лучшие торренты? Добавь свой email!
Добавить
» » Как выйти замуж за миллионера / How to Marry a Millionaire (1953) BDRip-AVC | iPhone | D скачать через торрент бесплатно




    Как выйти замуж за миллионера / How to Marry a Millionaire (1953) BDRip-AVC | iPhone | D скачать через торрент бесплатно

    Опубликовал: Админ | Дата: 27-02-2015, 11:10 | Просмотров: 335



    Как выйти замуж за миллионера / How to Marry a Millionaire (1953) BDRip-AVC | iPhone | D

    Русское название: Как выйти замуж за миллионера
    Русское название в мировом прокате: How to Marry a Millionaire
    Создали в: 1953
    Категория жанра: драма, мелодрама, комедия
    Главный режиссер: Жан Негулеско
    Актеры: Бетти Грэйбл, Мэрилин Монро, Лорен Бэколл, Дэвид Уэйн, Рори Кэлхун, Кэмерон Митчелл, Александр Д’Арси, Фред Кларк, Уильям Пауэлл, Джордж Дан

    Сюжет фильма:
    Нью-Йорк слезам не верит. Традиционная ситуация: три модели-блондинки ищут мужей-миллионеров. Для осуществления своих планов девушки снимают шикарную квартиру в элитном районе и начинают осуществлять задуманное. Проходят три месяца - из квартиры продана последняя мебель, а на горизонте - ни одной подходящей партии.К финалу картины страсти накаляются, у двух подруг возникает дилемма: деньги или любовь? Лишь у третьей, на первый взгляд, все складывается хорошо. Но это лишь - на первый взгляд


    Снималось в: США
    Киностудия: Twentieth Century Fox Film Corporation

    Время просмотра: 02:11:11
    Перевод текста: Русский дублированный

    Файл
    Кодек для видео: H.264
    Качество фильма: BDRip-AVC 480p iPhone
    Информация о видео: 640x334@851x334 (2.55:1) at 23.976 fps, AVC at 1670 kbps
    Информация о звуке:
    1: 48 kHz, AAC 2.0, 160 kbps - Русский дублированный
    2: 48 kHz, AAC 2.0, 182 kbps - Английский
    Субтитры: Английские

    Media Info

    General
    Complete name : C:CREATE480outHow to Marry a Millionaire.1953 (SD).m4v
    Format : MPEG-4
    Codec ID : M4V
    File size : 1.35 GiB
    Duration : 1h 35mn
    Overall bit rate mode : Variable
    Overall bit rate : 2 015 Kbps
    Movie name : Как выйти замуж за миллионера
    Performer : Жан Негулеско
    Genre : Comedy
    Recorded date : UTC 1953-11-04 08:00:00
    Encoded date : UTC 2014-02-16 08:42:56
    Tagged date : UTC 2014-02-16 08:55:12
    Copyright : Twentieth Century Fox Film Corporation
    Cover : Yes
    Comment : The Most Glamorous Entertainment Of Your Lifetime in CinemaScope. You See It Without Glasses!
    sonm : How to Marry a Millionaire
    desc : Нью-Йорк слезам не верит. Традиционная ситуация: три модели-блондинки ищут мужей-миллионеров. Для осуществления своих планов девушки снимают шикарную квартиру в элитном районе и начинают осуществлять задуманное.
    ldes : Нью-Йорк слезам не верит. Традиционная ситуация: три модели-блондинки ищут мужей-миллионеров. Для осуществления своих планов девушки снимают шикарную квартиру в элитном районе и начинают осуществлять задуманное. Проходят три месяца - из квартиры продана последняя мебель, а на горизонте - ни одной подходящей партии. К финалу картины страсти накаляются, у двух подруг возникает дилемма: деньги или любовь? Лишь у третьей, на первый взгляд, все складывается хорошо. Но это лишь - на первый взгляд.
    stik : 9
    rtng : 0
    cnID : 11661
    xid : Apple:vendor_id:1953-11661
    iTunEXTC : mpaa|R|400|

    Video #1
    ID : 1
    Format : AVC
    Format/Info : Advanced Video Codec
    Format profile : Baseline@L3.0
    Format settings, CABAC : No
    Format settings, ReFrames : 2 frames
    Codec ID : avc1
    Codec ID/Info : Advanced Video Coding
    Duration : 1h 35mn
    Bit rate : 1 670 Kbps
    Maximum bit rate : 5 770 Kbps
    Width : 640 pixels
    Height : 334 pixels
    Display aspect ratio : 2.550
    Frame rate mode : Constant
    Frame rate : 23.976 fps
    Color space : YUV
    Chroma subsampling : 4:2:0
    Bit depth : 8 bits
    Scan type : Progressive
    Bits/(Pixel*Frame) : 0.326
    Stream size : 1.12 GiB (83%)
    Title : How To Marry A Millionaire _1953_
    Writing library : x264 core 140 r2377 40 929f149 tMod 8-bit@4:2:0 X86_64
    Encoding settings : cabac=0 / ref=2 / deblock=1:-2:-2 / analyse=0x1:0x131 / me=umh / subme=7 / psy=1 / fade_compensate=1.00 / psy_rd=1.00:0.10 / mixed_ref=1 / me_range=32 / chroma_me=1 / trellis=2 / 8x8dct=0 / cqm=0 / deadzone=21,11 / fast_pskip=1 / chroma_qp_offset=-3 / threads=12 / lookahead_threads=2 / sliced_threads=0 / nr=0 / decimate=0 / interlaced=0 / bluray_compat=0 / constrained_intra=0 / fgo=0 / bframes=0 / weightp=0 / keyint=250 / keyint_min=23 / scenecut=40 / intra_refresh=0 / rc_lookahead=120 / rc=crf / mbtree=1 / crf=20.0000 / qcomp=0.70 / qpmin=0:0:0 / qpmax=69:69:69 / qpstep=4 / vbv_maxrate=5000 / vbv_bufsize=5000 / crf_max=0.0 / nal_hrd=none / filler=0 / ip_ratio=1.35 / aq=4:0.90 / aq-sensitivity=10.00 / aq-factor=1.00:1.00:1.00 / aq2=0 / aq3=0
    Language : English
    Encoded date : UTC 2014-02-16 08:42:56
    Tagged date : UTC 2014-02-16 08:43:54
    Matrix coefficients : BT.709

    Video #2
    ID : 6
    Format : JPEG
    Codec ID : jpeg
    Duration : 1h 35mn
    Bit rate mode : Variable
    Bit rate : 1 398 bps
    Width : 640 pixels
    Height : 251 pixels
    Display aspect ratio : 2.550
    Frame rate mode : Variable
    Frame rate : 0.004 fps
    Minimum frame rate : 0.002 fps
    Maximum frame rate : 0.013 fps
    Color space : YUV
    Chroma subsampling : 4:2:0
    Bit depth : 8 bits
    Compression mode : Lossy
    Bits/(Pixel*Frame) : 2.176
    Stream size : 1 024 KiB (0%)
    Language : English
    Encoded date : UTC 2014-02-16 08:55:07
    Tagged date : UTC 2014-02-16 08:55:08

    Audio #1
    ID : 2
    Format : AAC
    Format/Info : Advanced Audio Codec
    Format profile : LC
    Codec ID : 40
    Duration : 1h 35mn
    Bit rate mode : Variable
    Bit rate : 157 Kbps
    Maximum bit rate : 217 Kbps
    Channel(s) : 2 channels
    Channel positions : Front: L R
    Sampling rate : 48.0 KHz
    Compression mode : Lossy
    Stream size : 107 MiB (8%)
    Title : DUB
    Language : Russian
    Encoded date : UTC 2014-02-16 08:30:33
    Tagged date : UTC 2014-02-16 08:43:54

    Audio #2
    ID : 3
    Format : AAC
    Format/Info : Advanced Audio Codec
    Format profile : LC
    Codec ID : 40
    Duration : 1h 35mn
    Bit rate mode : Variable
    Bit rate : 182 Kbps
    Maximum bit rate : 221 Kbps
    Channel(s) : 2 channels
    Channel positions : Front: L R
    Sampling rate : 48.0 KHz
    Compression mode : Lossy
    Stream size : 125 MiB (9%)
    Title : Original
    Language : English
    Encoded date : UTC 2014-02-16 08:38:53
    Tagged date : UTC 2014-02-16 08:43:54

    Text
    ID : 4
    Format : Timed Text
    Muxing mode : sbtl
    Codec ID : tx3g
    Duration : 1h 35mn
    Bit rate mode : Variable
    Bit rate : 84 bps
    Stream size : 58.6 KiB (0%)
    Title : Subtitle English
    Language : English
    Encoded date : UTC 2014-02-16 08:43:54
    Tagged date : UTC 2014-02-16 08:43:54

    Menu
    ID : 5
    Codec ID : text
    Duration : 1h 35mn
    Language : English
    Encoded date : UTC 2014-02-16 08:46:16
    Tagged date : UTC 2014-02-16 08:46:16
    Bit rate mode : CBR
    iTunes Meta Tags

    Sort Name: How to Marry a Millionaire
    XID: Apple:vendor_id:1953-11661
    contentID: 11661
    Copyright: Twentieth Century Fox Film Corporation
    Screenwriters: Зои Экинс, Дэйл Юнсон, Кэтерин Альберт
    Producers: Наннэлли Джонсон
    Director: Jean Negulesco
    Cast: Betty Grable (Loco Dempsey), Marilyn Monroe (Pola Debevoise), Lauren Bacall (Schatze Page), David Wayne (Freddie Denmark), Rory Calhoun (Eben), Cameron Mitchell (Tom Brookman), Alexander D;Arcy (J. Stewart Merrill), Fred Clark (Waldo Brewster), William Powell (J.D. Hanley)
    Studio: Twentieth Century Fox Film Corporation
    Rating: 5
    Long Deion: Нью-Йорк слезам не верит. Традиционная ситуация: три модели-блондинки ищут мужей-миллионеров. Для осуществления своих планов девушки снимают шикарную квартиру в элитном районе и начинают осуществлять задуманное. Проходят три месяца - из квартиры продана последняя мебель, а на горизонте - ни одной подходящей партии. К финалу картины страсти накаляются, у двух подруг возникает дилемма: деньги или любовь? Лишь у третьей, на первый взгляд, все складывается хорошо. Но это лишь - на первый взгляд.
    Deion: Нью-Йорк слезам не верит. Традиционная ситуация: три модели-блондинки ищут мужей-миллионеров. Для осуществления своих планов девушки снимают шикарную квартиру в элитном районе и начинают осуществлять задуманное.
    Release Date: 1953-11-04T08:00:00Z
    Genre: Comedy
    Comments: The Most Glamorous Entertainment Of Your Lifetime in CinemaScope. You See It Without Glasses!
    Artist: Жан Негулеско
    Name: Как выйти замуж за миллионера
    x264 Log

    Sort Name: How to Marry a Millionaire
    XID: Apple:vendor_id:1953-11661
    contentID: 11661
    Copyright: Twentieth Century Fox Film Corporation
    Screenwriters: Зои Экинс, Дэйл Юнсон, Кэтерин Альберт
    Producers: Наннэлли Джонсон
    Director: Jean Negulesco
    Cast: Betty Grable (Loco Dempsey), Marilyn Monroe (Pola Debevoise), Lauren Bacall (Schatze Page), David Wayne (Freddie Denmark), Rory Calhoun (Eben), Cameron Mitchell (Tom Brookman), Alexander D;Arcy (J. Stewart Merrill), Fred Clark (Waldo Brewster), William Powell (J.D. Hanley)
    Studio: Twentieth Century Fox Film Corporation
    Rating: 5
    Long Deion: Нью-Йорк слезам не верит. Традиционная ситуация: три модели-блондинки ищут мужей-миллионеров. Для осуществления своих планов девушки снимают шикарную квартиру в элитном районе и начинают осуществлять задуманное. Проходят три месяца - из квартиры продана последняя мебель, а на горизонте - ни одной подходящей партии. К финалу картины страсти накаляются, у двух подруг возникает дилемма: деньги или любовь? Лишь у третьей, на первый взгляд, все складывается хорошо. Но это лишь - на первый взгляд.
    Deion: Нью-Йорк слезам не верит. Традиционная ситуация: три модели-блондинки ищут мужей-миллионеров. Для осуществления своих планов девушки снимают шикарную квартиру в элитном районе и начинают осуществлять задуманное.
    Release Date: 1953-11-04T08:00:00Z
    Genre: Comedy
    Comments: The Most Glamorous Entertainment Of Your Lifetime in CinemaScope. You See It Without Glasses!
    Artist: Жан Негулеско
    Name: Как выйти замуж за миллионера

    Скриншоты для ознакомления




    Залил: gekka
    Размер скачиваемого торрента: 1.35 GB (1447715999 Bytes)

    Как выйти замуж за миллионера / How to Marry a Millionaire (1953) BDRip-AVC | iPhone | D скачать через торрент бесплатно
    загрузка...
    Рейтинг →
     (голосов: 1, оценка 4/5, голосовать можно 1 раз )

    Другие торренты по теме:

  • Как выйти замуж за миллионера / How to Marry a Millionaire (1953) BDRip от ELmusic
  • Как выйти замуж за миллионера (2012) WEB-DLRip 1080p
  • Как выйти замуж за миллионера (2012) WEB-DLRip от Unitracker
  • Как выйти замуж за миллионера (2012) WEBDLRip-AVC
  • Как выйти замуж за миллионера (2012) WEBDLRip 720p
  • Евгений Грин - Как выйти в Астрал (2013) CAMRip
  • Как выйти замуж за миллионера (2012) DVDRip-AVC от Youtracker | лицензия
  • Как выйти замуж за миллионера (2012) DVDRip от Youtracker | лицензия


    • Комментарии (0):

      Информация

      Информация

        Посетители, находящиеся в группе Гости, не могут оставлять комментарии в данной новости.

        ↓ Меню



        ↓ Опрос

        А Вы добавили сайт в закладки?
        Да
        Не


        Top 10 за месяц (Фильмы)